.
Авторизация | Регистрация
Хочешь лучшие торренты? Добавь свой email!
Добавить
» » Таксист / Taxi Driver (1976) BDRip 720p от HQ-ViDEO | P, P2 скачать торрент бесплатно




    Таксист / Taxi Driver (1976) BDRip 720p от HQ-ViDEO | P, P2 скачать торрент бесплатно

    Опубликовал: Админ | Дата: 7-07-2015, 05:08 | Просмотров: 124


    Таксист/Taxi Driver (1976) BDRip 720p
    Релиз от HQ-ViDEO

    Детально о кино
    Русское название: Таксист
    Русское название в мировом прокате: Taxi Driver
    Создали в: 1976
    Категория жанра: триллер, драма, криминал
    Главный режиссер: Мартин Скорсезе /Martin Scorsese/

    Актеры
    Роберт Де Ниро /Robert De Niro/, Джоди Фостер /Jodie Foster/ , Альберт Брукс /Albert Brooks/, Леонард Харрис /Leonard Harris/, Питер Бойл /Peter Boyle/, Сибилл Шепард /Cybill Shepherd/, Дайэнн Эбботт /Diahnne Abbott/, Фрэнк Эду /Frank Adu/, Джино Ардито /Gino Ardito/, Виктор Арго /Victor Argo/, Харви Кейтель /Harvey Keitel/...

    Сюжет фильма

    Тусклый свет слепых фонарей, скелеты фабричных труб, задыхающихся в собственном дыму. Вавилонские башни небоскребов, все это — ад Нового времени, Нью-Йорк.
    Ветеран вьетнамской войны Трэйвис Бикл ведет свое одинокое такси по ночным улицам бесконечного города, и перед ним разворачивается мрачная панорама человеческих грехов. Как ветхозаветный пророк, он надеется, что однажды небеса пошлют на землю спасительный дождь, который очистит Нью-Йорк от вековой грязи.
    А когда умирает надежда, остается только ненависть. Огненный ливень обрушится на головы грешников. Таксист позаботится об этом.

    Снималось в: США
    Время просмотра: 01: 53: 48
    Перевод текста: Русский профессиональный, многоголосый (Киномания) +Русский профессиональный, многоголосый (R5 - Videoservis) +Русский профессиональный, двухголосый (HTB+)
    Отдельно на Яндекс Диске:
    Русский профессиональный, многоголосый (ОРТ) (192 kbps/2.0 ch) (Отдельно)
    Русский профессиональный, двухголосый (Blu-ray CEE) (640 kbps/5.1 ch) (Отдельно)
    Украинский профессиональный, многоголосый (Так Треба Продакшн-Інтер) (448 kbps/5.1 ch) (Отдельно)
    Авторский, одноголосый (Г. Либергал) (448 kbps/5.1 ch) (Отдельно)
    Авторский, одноголосый (К. Поздняков) (448 kbps/5.1 ch) (Отдельно)
    Авторский, одноголосый (А. Михалев) (192 kbps/2.0 ch) (Отдельно)
    Авторский, одноголосый (Ю. Живов (448 kbps/5.1 ch) (Отдельно)
    Оригинальная, английская дорожка (448 kbps/5.1 ch) (Отдельно)
    Файл
    Кодек для видео: MKV, H.264
    Качество фильма: BDRip 720p (Source: Blu-ray Disc)
    Информация о видео: 7192 kbps; 0.339 bit/pixel; 1280 x 692; 1.85: 1; 23.976 fps
    Информация о звуке #1: AC3 Dolby Digital; 448.00 kbps, 6 Ch - MVO Kinomaniya
    Информация о звуке #2: AC3 Dolby Digital; 192.00 kbps, 2 Ch - MVO R5 - Videoservis
    Информация о звуке #3: AC3 Dolby Digital; 192.00 kbps, 2 Ch - DVO NTV+
    Информация о звуке #4: AC3 Dolby Digital; 192.00 kbps, 2 Ch - MVO ORT (отдельно/скачать с Яндекс Диск)
    Информация о звуке #5: AC3 Dolby Digital; 640.00 kbps, 6 Ch - DVO Blu-ray CEE (отдельно/скачать с Яндекс Диск)
    Информация о звуке #6: AC3 Dolby Digital; 448.00 kbps, 6 Ch - UKR MVO Tak Treba Prodaction (отдельно/скачать с Яндекс Диск)
    Информация о звуке #7: AC3 Dolby Digital; 448.00 kbps, 6 Ch - AVO Libergal (отдельно/скачать с Яндекс Диск)
    Информация о звуке #8: AC3 Dolby Digital; 448.00 kbps, 6 Ch - AVO Pozdnyakov (отдельно/скачать с Яндекс Диск)
    Информация о звуке #9: AC3 Dolby Digital; 192.00 kbps, 2 Ch - AVO Mihalev (отдельно/скачать с Яндекс Диск)
    Информация о звуке #10: AC3 Dolby Digital; 448.00 kbps, 6 Ch - AVO Zhivov (отдельно/скачать с Яндекс Диск)
    Информация о звуке #11: AC3 Dolby Digital; 448.00 kbps, 6 Ch - ENG (отдельно/скачать с Яндекс Диск)
    Субтитры: Русские, Английские.
    Субтитры: Русские ( полные (2 вида), форсированные), Английские.(отдельно)
    Размер скачиваемого торрента: 6.51 GB
    SAMPLE/скачать с Яндекс Диск
    MediaInfo

    General
    Complete name : Taksist.1976.TRIPLERUS.BDRip.720p.h264.AC3.-HQ-ViDEO.mkv
    Format : Matroska
    File size : 6.51 GiB
    Duration : 1h 53mn
    Overall bit rate : 8 187 Kbps
    Movie name : Taxi Driver (1976)
    Encoded date : UTC 2011-04-01 10: 57: 20
    Writing application : mkvmerge v3.3.0 (;Language;) built on Mar 24 2010 14: 59: 24
    Writing library : libebml v0.8.0 + libmatroska v0.9.0
    Video
    ID : 1
    Format : AVC
    Format/Info : Advanced Video Codec
    Format profile : High@L4.1
    Format settings, CABAC : Yes
    Format settings, ReFrames : 6 frames
    Codec ID : V_MPEG4/ISO/AVC
    Duration : 1h 53mn
    Bit rate mode : Variable
    Bit rate : 7 192 Kbps
    Width : 1 280 pixels
    Height : 692 pixels
    Display aspect ratio : 1.850
    Frame rate : 23.976 fps
    Color space : YUV
    Chroma subsampling : 4: 2: 0
    Bit depth : 8 bits
    Scan type : Progressive
    Bits/(Pixel*Frame) : 0.339
    Stream size : 5.72 GiB (88%)
    Title : Encoded by GYN
    Audio #1
    ID : 2
    Format : AC-3
    Format/Info : Audio Coding 3
    Mode extension : CM (complete main)
    Codec ID : A_AC3
    Duration : 1h 53mn
    Bit rate mode : Constant
    Bit rate : 448 Kbps
    Channel(s) : 6 channels
    Channel positions : Front: L C R, Side: L R, LFE
    Sampling rate : 48.0 KHz
    Bit depth : 16 bits
    Compression mode : Lossy
    Stream size : 365 MiB (5%)
    Title : MVO Kinomania
    Language : Russian
    Audio #2
    ID : 3
    Format : AC-3
    Format/Info : Audio Coding 3
    Format profile : Dolby Digital
    Mode extension : CM (complete main)
    Codec ID : A_AC3
    Duration : 1h 53mn
    Bit rate mode : Constant
    Bit rate : 192 Kbps
    Channel(s) : 2 channels
    Channel positions : Front: L R
    Sampling rate : 48.0 KHz
    Bit depth : 16 bits
    Compression mode : Lossy
    Stream size : 156 MiB (2%)
    Title : MVO R5 - Videoservis
    Language : Russian
    Audio #3
    ID : 4
    Format : AC-3
    Format/Info : Audio Coding 3
    Format profile : Dolby Digital
    Mode extension : CM (complete main)
    Codec ID : A_AC3
    Duration : 1h 53mn
    Bit rate mode : Constant
    Bit rate : 192 Kbps
    Channel(s) : 2 channels
    Channel positions : Front: L R
    Sampling rate : 48.0 KHz
    Bit depth : 16 bits
    Compression mode : Lossy
    Stream size : 156 MiB (2%)
    Title : MVO HTB+
    Language : Russian
    Text #1
    ID : 5
    Format : UTF-8
    Codec ID : S_TEXT/UTF8
    Codec ID/Info : UTF-8 Plain Text
    Language : Russian
    Text #2
    ID : 6
    Format : UTF-8
    Codec ID : S_TEXT/UTF8
    Codec ID/Info : UTF-8 Plain Text
    Language : English





    Релиз подготовил: HQ-ViDEO
    Автор рипа: GYN

    Онлайн видео Таксист


    Размер скачиваемого торрента: 6.51 GB (6988607416 Bytes)

    Таксист/Taxi Driver (1976) BDRip 720p от HQ-ViDEO | P, P2
    загрузка...
    Рейтинг →
     (голосов: 1, оценка 4/5, голосовать можно 1 раз )

    Другие торренты по теме:

  • Хэк / Таксист / Таксист Майк / Hack (2002-2003) SATRip | P2
  • Таксист / Taxi Driver (1976) BDRip 1080p от NoLimits-Team | P, A
  • Таксист / Taxi Driver (1976) BDRip 1080p | Mastered in 4K | от Youtracker
  • Таксист / Taxi Driver (1976) BDRip 720p от Leonardo and Scarabey | Mastered in 4K скачать через торрент бесплатно
  • Таксист / Taxi Driver (1976) HDRip
  • Таксист / Taxi Driver (1976) HDRip от Scarabey | Р
  • Таксист / Taxi Driver (1976) BDRip 720p | Mastered in 4K | от New Team скачать через торрент бесплатно
  • Таксист / Taxi Driver (1976) BDRip-AVC от MediaClub | P, P2, A


    • Комментарии (0):

      Информация

      Информация

        Посетители, находящиеся в группе Гости, не могут оставлять комментарии в данной новости.

        ↓ Меню



        ↓ Опрос

        А Вы добавили сайт в закладки?
        Да
        Не


        Top 10 за месяц (Фильмы)