.
Авторизация | Регистрация
Хочешь лучшие торренты? Добавь свой email!
Добавить
» » Поезд идёт на восток (1947) DVDRip от New-Team скачать торрент бесплатно




    Поезд идёт на восток (1947) DVDRip от New-Team скачать торрент бесплатно

    Опубликовал: Админ | Дата: 7-07-2015, 05:05 | Просмотров: 154



    Снималось в: СССР
    Создали в: Мосфильм
    Категория жанра: мелодрама, комедия
    Создали в: 1947
    Время просмотра: 01: 27: 03
    Перевод текста: Не требуется
    Субтитры подготовлены: нет
    Оригинальная аудиодорожка: русский
    Главный режиссер: Юлий Райзман

    Актеры

    Лидия Драновская, Леонид Галлис (дебют в кино), Мария Яроцкая, Михаил Воробьев, Константин Сорокин, Владимир Любимов, Владимир Лепко, Андрей Петров, Владимир Дорофеев, Мария Андрианова; не упомянуты в титрах: Пётр Глебов, Иван Рыжов, Василий Ванин, Эммануил Геллер, Алексей Бахарь, Сергей Блинников, Виктор Бубнов, Георгий Бударов, Евгений Григорьев, Зана Занони, Константин Нассонов, Любовь Соколова, Борис Терентьев, Александр Ханов, Тихон Хренников — моряк с аккордеоном, Александр Гречаный, Сергей Антимонов, Гавриил Белов, Александра Денисова, Виктор Ключарев, Елена Максимова, Николай Никитич, Владимир Уральский, Николай Горлов, Василий Бокарев, Сергей Комаров, Валентина Телегина, Олеся Иванова, Наталья Цветкова, Татьяна Барышева, Александр Хвыля, Алексей Алексеев, Николай Бармин, Муза Крепкогорская, Анатолий Соловьёв, Людмила Геника-Чиркова, Евгений Кузнецов, Татьяна Гурецкая, Сергей Троицкий...
    Описание:
    Вечером 9 мая 1945 года, когда на площадях и улицах Москвы тысячи людей отмечали праздник Победы, от перрона Северного (нынешнего Ярославского) вокзала отошёл поезд на Владивосток. В купе поезда встретились молоденькая девушка-садовод Зина Соколова, недавно окончившая Тимирязевскую сельскохозакадемию, и офицер-моряк Лаврентьев из Ленинграда. Познакомились они чуть раньше, у окошка вокзального телеграфа. Живой, непосредственный характер Зины моряк принял за несерьёзный, легкомысленный. Лучше узнать друг друга путешественникам помог случай: на одной из станций они отстали от поезда и дальнейший путь совершали уже вдвоём, знакомясь по дороге с людьми и с жизнью нашей необъятной Родины. Соколова и Лаврентьев попадают на огромный завод, выстроенный в тайге. На заводском самолёте они летят дальше на восток, совершают вынужденную посадку, долго едут сквозь тайгу на подводе, ночуют в колхозной МТС и наконец вновь добираются до железной дороги. Скоро конец пути — Владивосток. За время вынужденного совместного путешествия молодые люди полюбили друг друга. Решительное объяснение произошло перед самым Владивостоком. Расставаясь на вокзале, Зина и Лаврентьев знали, что их разлука продлится недолго…




    Источник: DVD5 R5
    Качество фильма видео: DVDRip
    Тип видео видео: AVI
    Информация о видео: 688x512 (4: 3), 25 fps, XviD ~ 1588 kbps avg, 0.180 bit/pixel
    Информация о звуке: 48 kHz, Dolby Digital AC3 2.0, 192 kbps
    Раздача от:
    MediaInfo

    Общее
    Полное имя : Poezd.idet.na.Vostok.1947.DVDRip_New-team_by_AVP_Studio.avi
    Формат : AVI
    Формат/Информация : Audio Video Interleave
    Размер файла : 1, 09 Гбайт
    Продолжительность : 1 ч. 27 м.
    Общий поток : 1789 Кбит/сек
    Программа кодирования : VirtualDubModRus 1.5.10.2 (build 2542/release)
    Библиотека кодирования : VirtualDubMod build 2542/release
    Видео
    Идентификатор : 0
    Формат : MPEG-4 Visual
    Профиль формата : Advanced Simple@L5
    Параметр BVOP формата : 1
    Параметр QPel формата : Нет
    Параметр GMC формата : Без точки перехода
    Параметр матрицы формата : Выборочная
    Идентификатор кодека : XVID
    Идентификатор кодека/Подсказка : XviD
    Продолжительность : 1 ч. 27 м.
    Битрейт : 1588 Кбит/сек
    Ширина : 688 пикселей
    Высота : 512 пикселей
    Соотношение сторон : 4: 3
    Частота кадров : 25, 000 кадров/сек
    Цветовое пространство : YUV
    Субдискретизация насыщенности : 4: 2: 0
    Битовая глубина : 8 бит
    Тип развёртки : Прогрессивная
    Метод сжатия : С потерями
    Бит/(Пиксели*Кадры) : 0.180
    Размер потока : 988 Мбайт (89%)
    Библиотека кодирования : XviD 73
    Аудио
    Идентификатор : 1
    Формат : AC-3
    Формат/Информация : Audio Coding 3
    Расширение режима : CM (complete main)
    Параметр Endianness формата : Big
    Идентификатор кодека : 2000
    Продолжительность : 1 ч. 27 м.
    Вид битрейта : Постоянный
    Битрейт : 192 Кбит/сек
    Каналы : 2 канала
    Расположение каналов : Front: L R
    Частота : 48, 0 КГц
    Битовая глубина : 16 бит
    Метод сжатия : С потерями
    Размер потока : 120 Мбайт (11%)
    Выравнивание : Разделение по промежуткам
    Продолжительность промежутка : 40 мс. (1, 00 видеокадр)
    Время предзагрузки промежутка : 500 мс

    Скриншоты



    Залил: AVPStudio

    Онлайн видео Поезд идёт на восток (1947) DVDRip от New


    Размер скачиваемого торрента: 1.09 GB (1168185344 Bytes)

    Поезд идёт на восток (1947) DVDRip от New-Team
    загрузка...
    Рейтинг →
     (голосов: 1, оценка 3/5, голосовать можно 1 раз )

    Другие торренты по теме:

  • Поезд идёт на восток (1947) DVDRip
  • Поезд идёт на восток (1947) DVDRip от New-Team
  • Поезд идёт на восток (1947) DVDRip-AVC от New-Team
  • Поезд идёт на восток (1947) DVDRip-AVC от New-Team
  • Поезд идёт на восток (1947) DVDRip от New-Team


    • Комментарии (0):

      Информация

      Информация

        Посетители, находящиеся в группе Гости, не могут оставлять комментарии в данной новости.

        ↓ Меню



        ↓ Опрос

        А Вы добавили сайт в закладки?
        Да
        Не


        Top 10 за месяц (Фильмы)