.
Авторизация | Регистрация
Хочешь лучшие торренты? Добавь свой email!
Добавить




Подозрение (2014) HDTVRip-AVC скачать торрент бесплатно

Опубликовал: Админ | Дата: 7-07-2015, 05:01 | Просмотров: 114



Детально о кино
Русское название в мировом прокате: Подозрение
Создали в: 2014
Категория жанра: Детектив, криминал
Снималось в: Россия, Триикс Медиа
Главный режиссер: Арменак Назикян

Актеры
Владислав Резник, Евгений Воловенко, Наталья Круглова, Елена Карпова, Игорь Филиппов

Сюжет фильма

В Северной столице сотрудники ФСБ ведут разработку организованной преступной группы, возглавляет которую вор в законе по кличке Соха. Особый интерес у спецслужб вызывают данные о связях криминальной верхушки с представителями иностранной разведки. Неожиданно погибают все члены ОПГ, замеченные в контактах с зарубежными агентами. Проанализировав ситуацию, руководство ФСБ приходит к выводу, что кто-то, имевший доступ к секретным материалам, намеренно слил информацию. Подозрение падает на Юрия Иванова из отдела по борьбе с организованной преступностью. Его друга, майора ФСБ Павла Трофимова вызывают на ковер… Юрий и Павел дружили со школы, вместе поступали в Академию ФСБ. В предательство верного друга майор не верит. Ситуация накаляется, когда Трофимов понимает: ликвидация членов ОПГ не случайна, и, по всей видимости иностранная разведка осуществляет какую-то операцию на территории России. Чтобы узнать это наверняка и вывести крота на чистую воду, у Павла есть всего несколько дней. А что, если предателем на самом деле окажется его лучший друг?

Снималось в: Россия
Киностудия: Триикс Медиа
Время просмотра: 4 х ~ 00: 44: 00
Файл
Кодек для видео: h.264
Качество фильма: HDTVRip-AVC
Информация о видео: MPEG-4 AVC, ~ 1050 Кбит/с, 1024x576, 25 кадр/с
Информация о звуке: AC3, 2 ch, 192 Кбит/с
Язык: Русский
M/I
General
Unique ID : 283993692922700675242593302767208575809 (0xD5A7321AD123FC236682071634213341)
Complete name : F: СериалыПодозрение 01-04 из 04 (2014) HDTVRIP_AVCPodozrenie.(01.seriya.iz.04).2014.HDTVRIP_AVC.-=DoMiNo=-.mkv
Format : Matroska
Format version : Version 4/Version 2
File size : 438 MiB
Duration : 44mn 3s
Overall bit rate : 1 389 Kbps
Writing application : XviD4PSP 7.0.148
Writing library : Lavf56.25.101
ENCODING_INFO : MPEGTS MKV 720p/H264 X264 CRF 20, 0 Custom/MP2 AC3
Video
ID : 1
Format : AVC
Format/Info : Advanced Video Codec
Format profile : High@L4.1
Format settings, CABAC : Yes
Format settings, ReFrames : 10 frames
Codec ID : V_MPEG4/ISO/AVC
Duration : 44mn 3s
Bit rate : 1 170 Kbps
Width : 1 024 pixels
Height : 576 pixels
Display aspect ratio : 16: 9
Frame rate mode : Constant
Frame rate : 25.000 fps
Color space : YUV
Chroma subsampling : 4: 2: 0
Bit depth : 8 bits
Scan type : Progressive
Bits/(Pixel*Frame) : 0.079
Stream size : 369 MiB (84%)
Writing library : x264 core 146 r2538M 121396c
Encoding settings : cabac=1/ref=10/deblock=1: -3: -3/analyse=0x3: 0x133/me=umh/subme=10/psy=1/psy_rd=1, 00: 0, 10/mixed_ref=1/me_range=32/chroma_me=1/trellis=2/8x8dct=1/cqm=0/deadzone=21, 11/fast_pskip=0/chroma_qp_offset=-3/threads=12/lookahead_threads=2/sliced_threads=0/nr=0/decimate=1/interlaced=0/bluray_compat=0/constrained_intra=0/bframes=9/b_pyramid=2/b_adapt=2/b_bias=0/direct=1/weightb=1/open_gop=0/weightp=2/keyint=250/keyint_min=25/scenecut=40/intra_refresh=0/rc=crf/mbtree=0/crf=20, 0/qcomp=0, 60/qpmin=20/qpmax=69/qpstep=4/ip_ratio=1, 40/pb_ratio=1, 30/aq=1: 1, 00
Default : Yes
Forced : No
Color range : Limited
Color primaries : BT.709
Transfer characteristics : BT.709
Matrix coefficients : BT.709
Audio
ID : 2
Format : AC-3
Format/Info : Audio Coding 3
Mode extension : CM (complete main)
Format settings, Endianness : Big
Codec ID : A_AC3
Duration : 44mn 3s
Bit rate mode : Constant
Bit rate : 192 Kbps
Channel(s) : 2 channels
Channel positions : Front: L R
Sampling rate : 48.0 KHz
Bit depth : 32 bits
Compression mode : Lossy
Delay relative to video : 27ms
Stream size : 60.5 MiB (14%)
Language : Russian
Default : Yes
Forced : No
Скриншоты

Размер скачиваемого торрента: 1.56 GB (1675534526 Bytes)

Подозрение (2014) HDTVRip-AVC
загрузка...
Рейтинг →
 (голосов: 1, оценка 5/5, голосовать можно 1 раз )

Другие торренты по теме:

  • Подозрение (2014) HDTV 1080i от MediaClub
  • Подозрение (2014) HDTVRip 720p от MediaClub
  • Подозрение (2014) HDTVRip от Files-x
  • Подозрение (2014) HDTVRip-AVC от Files-x
  • Подозрение / Suspicion (1941) BDRip от HQCLUB
  • Подозрение / Suspicion (1941) BDRip от HQCLUB
  • Подозрение (2001) WEBRip


    • Комментарии (0):

      Информация

      Информация

        Посетители, находящиеся в группе Гости, не могут оставлять комментарии в данной новости.

        ↓ Меню



        ↓ Опрос

        А Вы добавили сайт в закладки?
        Да
        Не


        Top 10 за месяц (Фильмы)