.
Авторизация | Регистрация
Хочешь лучшие торренты? Добавь свой email!
Добавить
» » Дети шпионов 2: Остров несбывшихся надежд / Spy Kids 2: Island of Lost Dreams (2002) DVD9+DVD5 | D скачать торрент бесплатно




    Дети шпионов 2: Остров несбывшихся надежд / Spy Kids 2: Island of Lost Dreams (2002) DVD9+DVD5 | D скачать торрент бесплатно

    Опубликовал: Админ | Дата: 6-07-2015, 05:08 | Просмотров: 189



    Детально о кино
    Русское название: Дети шпионов 2: Остров несбывшихся надежд
    Русское название в мировом прокате: Spy Kids 2: Island of Lost Dreams
    Создали в: 2002
    Категория жанра: фантастика, боевик, комедия, приключения, семейный
    Главный режиссер: Роберт Родригес

    Актеры
    Антонио Бандерас, Карла Гуджино, Алекса ПенаВега, Дэрил Сабара, Стив Бушеми, Майк Джадж, Дэнни Трехо, Чич Марин, Мэтью О’Лири, Эмили Осмент

    Сюжет фильма

    Джуни и его старшая сестра Кармен еще предыдущими своими приключениями доказали, что они не только могут помогать своим родителям-шпионам, но и могут самостоятельно справляться с делами, достойными настоящих шпионов. На этот раз не их родителям, Грегорио и Ингрид, а самим Джуни и Кармен предстоит выполнить новое задание.
    Они отправляются на таинственный остров, где один ученый-изобретатель создает сверхъестественные существа. Джуни и Кармен должны остановить безумного злодея, однако в этом задании у них есть конкуренты — брат и сестра Гари и Герти. У этих двух конкурирующих шпионских дуэтов одна цель — найти и уничтожить устройство, которое может нанести непоправимый вред всему миру.
    Это задание оказывается слишком сложным для юных шпионов, которым на помощь приходят их родители и дедушка с бабушкой…

    Снималось в: США
    Киностудия: Dimension Films, Troublemaker Studios
    Время просмотра: 96 мин./01: 36
    Перевод текста: полное дублирование
    Файл
    Кодек для видео: MPEG2
    Качество фильма: DVD9+DVD5 West Video
    Информация о видео: PAL 16: 9 (720x576@1024x576) VBR 5576 Kbps, 25.000 fps
    Информация о звуке 1: Dolby AC3, 6 ch, 48.0 KHz, 384 Kbps (русский, английский)
    Информация о звуке 2: DTS 6 ch, 48.0 KHz, 768 Kbps (русский)
    Субтитры: русские
    Дополнительные материалы
    ТрейлерКиношкола за 10 минутКаскадеры: Новое поколениеМузыкальный клипНужные вещиШкола в национальном парке Биг БендРабота за кадромПолный доступ: Один день из жизни детей-шпионовФильмографииФотогалерея
    MediaInfo
    Общее
    Полное имя : E: deti_shpionov2dvd1VIDEO_TSVTS_02_1.VOB
    Формат : MPEG-PS
    Размер файла : 1024 Мбайт
    Продолжительность : 19 м.
    Режим общего битрейта : Переменный
    Общий поток : 7243 Кбит/сек
    Видео
    Идентификатор : 224 (0xE0)
    Формат : MPEG Video
    Версия формата : Version 2
    Профиль формата : Main@Main
    Параметр BVOP формата : Да
    Параметр матрицы формата : По умолчанию
    Параметр GOP формата : M=5, N=26
    Структура изображения : Field
    Продолжительность : 19 м.
    Вид битрейта : Переменный
    Битрейт : 5576 Кбит/сек
    Максимальный битрейт : 8300 Кбит/сек
    Ширина : 720 пикселей
    Высота : 576 пикселей
    Соотношение сторон : 2, 40: 1
    Частота кадров : 25, 000 кадров/сек
    Стандарт вещания : PAL
    Цветовое пространство : YUV
    Субдискретизация насыщенности : 4: 2: 0
    Битовая глубина : 8 бит
    Тип развёртки : Чересстрочная
    Порядок развёртки : Верхнее поле первое
    Метод сжатия : С потерями
    Бит/(Пиксели*Кадры) : 0.538
    Временной код первого кадра : 00: 59: 59: 05
    Оригинал временного кода : Group of pictures t_head
    GOP, открыто/закрыто : Открыто
    Размер потока : 788 Мбайт (77%)
    Основные цвета : BT.601 PAL
    Характеристики трансфера : BT.470 System B, BT.470 System G
    Коэффициенты матрицы : BT.601
    Аудио #1
    Идентификатор : 189 (0xBD)-128 (0x80)
    Формат : AC-3
    Формат/Информация : Audio Coding 3
    Расширение режима : CM (complete main)
    Параметр Endianness формата : Big
    Режим смешивания : DVD-Video
    Продолжительность : 19 м.
    Вид битрейта : Постоянный
    Битрейт : 384 Кбит/сек
    Каналы : 6 каналов
    Расположение каналов : Front: L C R, Side: L R, LFE
    Частота : 48, 0 КГц
    Метод сжатия : С потерями
    Размер потока : 54, 3 Мбайт (5%)
    Аудио #2
    Идентификатор : 189 (0xBD)-130 (0x82)
    Формат : AC-3
    Формат/Информация : Audio Coding 3
    Расширение режима : CM (complete main)
    Параметр Endianness формата : Big
    Режим смешивания : DVD-Video
    Продолжительность : 19 м.
    Вид битрейта : Постоянный
    Битрейт : 384 Кбит/сек
    Каналы : 6 каналов
    Расположение каналов : Front: L C R, Side: L R, LFE
    Частота : 48, 0 КГц
    Метод сжатия : С потерями
    Размер потока : 54, 3 Мбайт (5%)
    Аудио #3
    Идентификатор : 189 (0xBD)-137 (0x89)
    Формат : DTS
    Формат/Информация : Digital Theater Systems
    Режим : 16
    Параметр Endianness формата : Big
    Режим смешивания : DVD-Video
    Продолжительность : 19 м.
    Вид битрейта : Постоянный
    Битрейт : 755 Кбит/сек
    Каналы : 6 каналов
    Расположение каналов : Front: L C R, Side: L R, LFE
    Частота : 48, 0 КГц
    Битовая глубина : 24 бит
    Метод сжатия : С потерями
    Размер потока : 107 Мбайт (10%)
    Меню
    Скриншоты


    Залил: carisha

    Онлайн видео Дети шпионов 2: Остров несбывшихся надежд


    Размер скачиваемого торрента: 8.05 GB (8646785024 Bytes)

    Дети шпионов 2: Остров несбывшихся надежд/Spy Kids 2: Island of Lost Dreams (2002) DVD9+DVD5 | D
    загрузка...
    Рейтинг →
     (голосов: 1, оценка 3/5, голосовать можно 1 раз )

    Другие торренты по теме:

  • Дети шпионов / Spy Kids (2001) DVD9 | D
  • Дети шпионов 3: Игра окончена / Spy Kids 3-D: Game Over (2003) DVD9 | D


    • Комментарии (0):

      Информация

      Информация

        Посетители, находящиеся в группе Гости, не могут оставлять комментарии в данной новости.

        ↓ Меню



        ↓ Опрос

        А Вы добавили сайт в закладки?
        Да
        Не


        Top 10 за месяц (Фильмы)