.
Авторизация | Регистрация
Хочешь лучшие торренты? Добавь свой email!
Добавить
» » Майами Блюз / Miami Blues (1990) BDRip от 0ptimus | D, P, P2, A скачать торрент бесплатно




    Майами Блюз / Miami Blues (1990) BDRip от 0ptimus | D, P, P2, A скачать торрент бесплатно

    Опубликовал: Админ | Дата: 6-07-2015, 05:06 | Просмотров: 124



    Майами Блюз
    | Miami Blues |

    Детально о кино
    Русское название: Майами Блюз
    Русское название в мировом прокате: Miami Blues
    Создали в: 1990
    Категория жанра: Триллер, драма, мелодрама, криминал
    Главный режиссер: Джордж Эрмитаж

    Актеры
    Алек Болдуин, Дженнифер Джейсон Ли, Фред Уорд, Сесилия Перез-Сервер, Джорджи Крэнфорд, Эдвард Саксон, Хосе Перез, Обба Бабатунде, Чарльз Нэпьер, Мэтт Ингерсолл

    Сюжет фильма

    Фред Френджер только что откинулся после очередной отсидки и прибыл в Майами — жить по-новому. Жизнь эту, в его понимании, просто необходимо начать с того, что уже в аэропорту сломать палец надоедливому кришнаиту, да так, чтобы бедняга прямо на месте отдал концы от болевого шока. На последние деньги купить в магазине игрушечный узи и с ним наперевес пополнить запас наличных в ближайшей подворотне. Потом поколотить полицейского, отобрать у него значок и документы и тогда уже разгуляться по-настоящему. А часы досуга коротать в компании недалекой студентки, подрабатывающей проституцией и не догадывающейся, с кем на самом деле связалась...

    Снималось в: США
    Киностудия: Tristes Tropiques
    Время просмотра: 01: 32: 51
    Перевод текста: Дублированный, профессиональный многоголосый, профессиональный двухголосый, авторский
    Файл
    Кодек для видео: XviD
    Качество фильма: BDRip
    Информация о видео: 1746 Кбит/с, 704x384, 23.976 кадр/с
    Информация о звуке:
    • №1: Русский (AC3, 2 ch, 192 Кбит/с) Дублированный Варус Видео
    • №2: Русский (AC3, 2 ch, 192 Кбит/с) Авторский Алексей Михалев
    Отдельно:
    • №3: Русский (AC3, 2 ch, 192 Кбит/с) Профессиональный многоголосый Лазер Видео
    • №4: Русский (AC3, 2 ch, 192 Кбит/с) Профессиональный многоголосый НТВ
    • №5: Русский (AC3, 2 ch, 192 Кбит/с) Профессиональный двухголосый НТВ+, Ольга Плетнёва и Александр Головчанский
    • №6: Русский (AC3, 2 ch, 192 Кбит/с) Профессиональный двухголосый НТВ+, Наталья Казначеева и Андрей Симанов
    • №7: Украинский (AC3, 2 ch, 192 Кбит/с) Профессиональный многоголосый KIHO
    • №8: Английский (AC3, 2 ch, 192 Кбит/с)
    Субтитры: Английские
    MediaInfo

    Полное имя : Miami.Blues.1990.XviD.BDRip.0ptimus.avi
    Формат : AVI
    Формат/Информация : Audio Video Interleave
    Размер файла : 1, 45 Гбайт
    Продолжительность : 1 ч. 36 м.
    Общий поток : 2145 Кбит/сек
    Программа кодирования : VirtualDubMod 1.5.10.2 (build 2540/release)
    Библиотека кодирования : VirtualDubMod build 2540/release
    Видео
    Идентификатор : 0
    Формат : MPEG-4 Visual
    Профиль формата : Advanced Simple@L5
    Параметр BVOP формата : 1
    Параметр QPel формата : Нет
    Параметр GMC формата : Без точки перехода
    Параметр матрицы формата : Выборочная
    Идентификатор кодека : XVID
    Идентификатор кодека/Подсказка : XviD
    Продолжительность : 1 ч. 36 м.
    Битрейт : 1746 Кбит/сек
    Ширина : 704 пикселя
    Высота : 384 пикселя
    Соотношение сторон : 1, 85: 1
    Частота кадров : 23, 976 кадра/сек
    Цветовое пространство : YUV
    Субдискретизация насыщенности : 4: 2: 0
    Битовая глубина : 8 бит
    Тип развёртки : Прогрессивная
    Метод сжатия : С потерями
    Бит/(Пиксели*Кадры) : 0.269
    Размер потока : 1, 18 Гбайт (81%)
    Библиотека кодирования : XviD 64
    Аудио #1
    Идентификатор : 1
    Формат : AC-3
    Формат/Информация : Audio Coding 3
    Расширение режима : CM (complete main)
    Параметр Endianness формата : Big
    Идентификатор кодека : 2000
    Продолжительность : 1 ч. 36 м.
    Вид битрейта : Постоянный
    Битрейт : 192 Кбит/сек
    Каналы : 2 канала
    Расположение каналов : Front: L R
    Частота : 48, 0 КГц
    Битовая глубина : 16 бит
    Метод сжатия : С потерями
    Размер потока : 133 Мбайт (9%)
    Выравнивание : Разделение по промежуткам
    Продолжительность промежутка : 42 мс. (1, 00 видеокадр)
    Время предзагрузки промежутка : 500 мс.
    Заголовок : Дублированный Варус Видео
    Аудио #2
    Идентификатор : 2
    Формат : AC-3
    Формат/Информация : Audio Coding 3
    Расширение режима : CM (complete main)
    Параметр Endianness формата : Big
    Идентификатор кодека : 2000
    Продолжительность : 1 ч. 36 м.
    Вид битрейта : Постоянный
    Битрейт : 192 Кбит/сек
    Каналы : 2 канала
    Расположение каналов : Front: L R
    Частота : 48, 0 КГц
    Битовая глубина : 16 бит
    Метод сжатия : С потерями
    Размер потока : 133 Мбайт (9%)
    Выравнивание : Разделение по промежуткам
    Продолжительность промежутка : 42 мс. (1, 00 видеокадр)
    Время предзагрузки промежутка : 500 мс.
    Заголовок : Авторский Алексей Михалев
    Скриншоты



    Релиз подготовил:
    Залил: 0ptimus

    Онлайн видео Майами Блюз


    Размер скачиваемого торрента: 2.23 GB (2396339808 Bytes)

    Майами Блюз/Miami Blues (1990) BDRip от 0ptimus | D, P, P2, A
    загрузка...
    Рейтинг →
     (голосов: 1, оценка 5/5, голосовать можно 1 раз )

    Другие торренты по теме:

  • Майами Блюз / Miami Blues (1990) HDTVRip (720p) от 0ptimus | D, P2, A
  • Майами Блюз / Miami Blues (1990) HDTVRip 720p от Deadmauvlad | D, P2, A
  • Майами Блюз / Miami Blues (1990) BDRip-AVC от 0ptimus | D, P, P2, A
  • Майами Блюз / Miami Blues (1990) BDRip 1080p | D, P, P2, A
  • Майами Блюз / Miami Blues (1990) HDRip от Scarabey | D


    • Комментарии (0):

      Информация

      Информация

        Посетители, находящиеся в группе Гости, не могут оставлять комментарии в данной новости.

        ↓ Меню



        ↓ Опрос

        А Вы добавили сайт в закладки?
        Да
        Не


        Top 10 за месяц (Фильмы)