.
Авторизация | Регистрация
Хочешь лучшие торренты? Добавь свой email!
Добавить
» » Иллюзия убийства / F / X (1986) BDRip 1080p скачать торрент бесплатно




    Иллюзия убийства / F / X (1986) BDRip 1080p скачать торрент бесплатно

    Опубликовал: Админ | Дата: 5-07-2015, 05:08 | Просмотров: 88



    Русское название: Иллюзия убийства
    Русское название в мировом прокате: F/X
    Создали в: 1986
    Снималось в: США
    Категория жанра: боевик, триллер, криминал
    Время просмотра: 01: 48: 36
    Перевод текста: дублированный, профессиональный многоголосый, профессиональный двухголосый, авторский
    Главный режиссёр: Роберт Мандел

    Актеры
    Брайан Браун, Брайан Деннехи, Дайан Венора, Клифф Де Янг, Джерри Орбах, Джо Грифази, Марта Геман, Анжела Бассетт
    Описание: В шоу-бизнесе нет лучшего мастера спецэффектов, чем Ролли Тайлер. Его уникальные способности создавать на экране грандиозные иллюзии приносят ему множество заказов от крупнейших студий Голливуда. На этот раз его заказчиком становится… Министерство юстиции. Суть дела - разыграть убийство важного свидетеля, дающего показания против теневых воротил. Задуманная постановка проходит как по маслу, но в результате свидетель бесследно исчезает, а недоумевающему и ошеломлённому Ролли пришивают убийство. Обманутый и преследуемый бывшими работодателями (Отделом полиции Нью-Йорка) Ролли быстро понимает, что никому не может доверять, и единственное средство сохранить жизнь — использование его несравнимого искусства мистификатора...

    Качество фильма: BDRip 1080p Сравнение с исходником
    Тип видео: MKV
    Информация о видео: MPEG-4 AVC, 12 Mбит/с, 1920x1036, 23, 976 кадра/с
    Информация о звуке 1: русский, AC3, 192 kbps, 2 ch, 48 kHz дублированный, Варус видео
    Информация о звуке 2: русский, AC3, 192 kbps, 2 ch, 48 kHz профессиональный многоголосый, НТВ
    Информация о звуке 3: русский, AC3, 192 kbps, 2 ch, 48 kHz профессиональный двухголосый, НТВ+
    Информация о звуке 4: русский, AC3, 192 kbps, 2 ch, 48 kHz авторский, Андрей Гаврилов
    Внешние файлы:
    Информация о звуке: русский, DTS, 1509 kbps, 2 ch, 48 kHz профессиональный многоголосый, Позитив-Мультимедиа
    Информация о звуке: русский, DTS, 1509 kbps, 6 ch, 48 kHz авторский, Василий Горчаков
    Информация о звуке: русский, DTS, 1509 kbps, 6 ch, 48 kHz авторский, Юрий Живов
    Информация о звуке: русский, AC3, 192 kbps, 6 ch, 48 kHz авторский, Максим Ошурков
    Информация о звуке: английский, DTS, 1509 kbps, 2 ch, 48 kHz оригинал
    Субтитры: русские
    Субтитры: английские
    Инфо-файл
    Общее
    Полное имя : D: VideoИллюзия убийства.1986.BDRip.1080pИллюзия убийства.1986.AVO.rus.В.Горчаков.dts
    Формат : DTS
    Формат/Информация : Digital Theater Systems
    Размер файла : 1, 14 Гбайт
    Продолжительность : 1 ч. 48 м.
    Режим общего битрейта : Постоянный
    Общий поток : 1509 Кбит/сек
    Аудио
    Формат : DTS
    Формат/Информация : Digital Theater Systems
    Режим : 16
    Параметр Endianness формата : Big
    Продолжительность : 1 ч. 48 м.
    Вид битрейта : Постоянный
    Битрейт : 1509 Кбит/сек
    Каналы : 2 канала
    Расположение каналов : Front: L R
    Частота : 48, 0 КГц
    Битовая глубина : 16 бит
    Метод сжатия : С потерями
    Размер потока : 1, 14 Гбайт
    Общее
    Полное имя : D: VideoИллюзия убийства.1986.BDRip.1080pИллюзия убийства.1986.AVO.rus.Ю.Живов.dts
    Формат : DTS
    Формат/Информация : Digital Theater Systems
    Размер файла : 1, 14 Гбайт
    Продолжительность : 1 ч. 48 м.
    Режим общего битрейта : Постоянный
    Общий поток : 1509 Кбит/сек
    Аудио
    Формат : DTS
    Формат/Информация : Digital Theater Systems
    Режим : 16
    Параметр Endianness формата : Big
    Продолжительность : 1 ч. 48 м.
    Вид битрейта : Постоянный
    Битрейт : 1509 Кбит/сек
    Каналы : 2 канала
    Расположение каналов : Front: L R
    Частота : 48, 0 КГц
    Битовая глубина : 16 бит
    Метод сжатия : С потерями
    Размер потока : 1, 14 Гбайт
    Общее
    Уникальный идентификатор : 238760140026243763625357188038384312042 (0xB39F87C3119AFA408D6BC46576EE5EEA)
    Полное имя : D: VideoИллюзия убийства.1986.BDRip.1080pИллюзия убийства.1986.BDRip.1080p.mkv
    Формат : Matroska
    Версия формата : Version 4/Version 2
    Размер файла : 9, 85 Гбайт
    Продолжительность : 1 ч. 48 м.
    Общий поток : 13, 0 Мбит/сек
    Название фильма : BDRip -- STarankov
    Дата кодирования : UTC 2015-07-04 07: 00: 25
    Программа кодирования : mkvmerge v7.9.0 (;Birds;) 64bit
    Библиотека кодирования : libebml v1.3.1 + libmatroska v1.4.2
    DURATION : 01: 48: 36.992000000
    NUMBER_OF_FRAMES : 203656
    NUMBER_OF_BYTES : 156407808
    _STATISTICS_WRITING_APP : mkvmerge v7.9.0 (;Birds;) 64bit
    _STATISTICS_WRITING_DATE_UTC : 2015-07-04 07: 00: 25
    _STATISTICS_TAGS : BPS DURATION NUMBER_OF_FRAMES NUMBER_OF_BYTES
    Видео
    Идентификатор : 1
    Формат : AVC
    Формат/Информация : Advanced Video Codec
    Профиль формата : High@L4.1
    Параметр CABAC формата : Да
    Параметр ReFrames формата : 4 кадра
    Идентификатор кодека : V_MPEG4/ISO/AVC
    Продолжительность : 1 ч. 48 м.
    Битрейт : 12, 0 Мбит/сек
    Ширина : 1920 пикселей
    Высота : 1036 пикселей
    Соотношение сторон : 1, 85: 1
    Режим частоты кадров : Постоянный
    Частота кадров : 23, 976 кадра/сек
    Цветовое пространство : YUV
    Субдискретизация насыщенности : 4: 2: 0
    Битовая глубина : 8 бит
    Тип развёртки : Прогрессивная
    Бит/(Пиксели*Кадры) : 0.251
    Размер потока : 9, 08 Гбайт (92%)
    Библиотека кодирования : x264 core 146 r2538 121396c
    Залил: msltel

    Онлайн видео Иллюзия убийства


    Размер скачиваемого торрента: 14.58 GB (15654273071 Bytes)


    Иллюзия убийства/F/X (1986) BDRip 1080p
    загрузка...
    Рейтинг →
     (голосов: 1, оценка 4/5, голосовать можно 1 раз )

    Другие торренты по теме:

  • Иллюзия убийства / F / X Murder by Illusion (1986) HDTVRip 1080p от renta23
  • Иллюзия убийства 2 - смертельное искусство / F / X2: The Deadly Art Of Illusion (1991) HDTVRip 1080p от renta23
  • Иллюзия убийства / F / X (1986) HDTVRip от New-Team скачать через торрент бесплатно
  • Иллюзия убийства / F / X (1986) HDTVRip-AVC от New-Team
  • Иллюзия убийства / F / X: The Series (1996 - 1997) SATRip от Brazzass скачать через торрент бесплатно
  • Иллюзия убийства: Дилогия / F / X: Dilogy (1986-1991) BDRip 720p скачать через торрент бесплатно
  • Иллюзия убийства / F / X (1986) BDRip 1080p | D, P, P1, A
  • Иллюзия убийства / F / X (1986) BDRip-AVC


    • Комментарии (0):

      Информация

      Информация

        Посетители, находящиеся в группе Гости, не могут оставлять комментарии в данной новости.

        ↓ Меню



        ↓ Опрос

        А Вы добавили сайт в закладки?
        Да
        Не


        Top 10 за месяц (Фильмы)