.
Авторизация | Регистрация
Хочешь лучшие торренты? Добавь свой email!
Добавить
» » Комната страха / Panic Room (2002) WEB-DL 720p | D, P скачать торрент бесплатно




    Комната страха / Panic Room (2002) WEB-DL 720p | D, P скачать торрент бесплатно

    Опубликовал: Админ | Дата: 5-07-2015, 05:06 | Просмотров: 149



    Детально о кино
    Русское название: Комната страха
    Русское название в мировом прокате: Panic Room
    Создали в: 2002
    Категория жанра: триллер, драма, криминал
    Главный режиссер: Дэвид Финчер

    Актеры
    Джоди Фостер— Мег Олтман, Кристен Стюарт— Сара Олтман, Форест Уитакер— Бёрнам, Джаред Лето— Джуниор, Дуайт Йокам— Рауль, Патрик Бошо— Стивен Олтман, Энн Магнусон— Лидия Линч, Пол Шульц— Офицер Кини.

    Сюжет фильма

    Мэг Олтман с дочерью Сарой въехала в свой только что купленный дом, ранее принадлежащий миллионеру. Хороший дом, в хорошем районе, казалось бы идеальное место для жизни.
    Помимо всего прочего дом оборудован так называемой аварийной комнатой в которой можно спрятаться, если в дом залезут воры. После того как дверь из стали закроется, попасть в комнату становится невозможно. Конечно, злодеи не заставили себя ждать…

    Снималось в: США
    Киностудия: Columbia Pictures, Hofflund/Polone, Indelible Pictures
    Время просмотра: 01: 51: 56
    Перевод текста: Дублированный, Профессиональный многоголосый, Оригинал
    Файл
    Качество фильма: WEB-DL 720p
    Информация о видео: 1280x532 (2, 40: 1), 23.976 fps, MPEG-4 AVC, 3928 Kbps
    Информация о звуке:
    Информация о звуке #1: AC3, 384 Kbps, 48.0 KHz, 6 ch (Rus)Дублированный, Невафильм
    Информация о звуке #2: AC3, 384 Kbps, 48.0 KHz, 6 ch (Ukr)Профессиональный многоголосый, ТРК Украина
    Информация о звуке #3: AC3, 384 Kbps, 48.0 KHz, 6 ch (Eng)Оригинал
    Субтитры: Русские, Английские
    Скриншоты


    MediaInfo
    Формат : Matroska
    Версия формата : Version 2
    Размер файла : 4, 05 Гбайт
    Продолжительность : 1 ч. 51 м.
    Общий поток : 5183 Кбит/сек
    Дата кодирования : UTC 2015-07-03 13: 49: 14
    Программа кодирования : mkvmerge v5.4.0 (;Piper;) built on Mar 10 2012 13: 34: 39
    Библиотека кодирования : libebml v1.2.3 + libmatroska v1.3.0
    Видео
    Идентификатор : 1
    Формат : AVC
    Формат/Информация : Advanced Video Codec
    Профиль формата : Main@L3.1
    Параметр CABAC формата : Нет
    Параметр ReFrames формата : 2 кадра
    Идентификатор кодека : V_MPEG4/ISO/AVC
    Продолжительность : 1 ч. 51 м.
    Битрейт : 3928 Кбит/сек
    Ширина : 1280 пикселей
    Высота : 532 пикселя
    Соотношение сторон : 2, 40: 1
    Режим частоты кадров : Постоянный
    Частота кадров : 23, 976 кадра/сек
    Цветовое пространство : YUV
    Субдискретизация насыщенности : 4: 2: 0
    Битовая глубина : 8 бит
    Тип развёртки : Прогрессивная
    Бит/(Пиксели*Кадры) : 0.241
    Размер потока : 3, 07 Гбайт (76%)
    Заголовок : Panic Room/Комната страха (2002)
    Язык : English
    Default : Да
    Forced : Нет
    Основные цвета : BT.709
    Характеристики трансфера : BT.709
    Коэффициенты матрицы : BT.709
    colour_range : Limited
    Аудио #1
    Идентификатор : 2
    Формат : AC-3
    Формат/Информация : Audio Coding 3
    Расширение режима : CM (complete main)
    Параметр Endianness формата : Big
    Идентификатор кодека : A_AC3
    Продолжительность : 1 ч. 51 м.
    Вид битрейта : Постоянный
    Битрейт : 384 Кбит/сек
    Каналы : 6 каналов
    Расположение каналов : Front: L C R, Side: L R, LFE
    Частота : 48, 0 КГц
    Битовая глубина : 16 бит
    Метод сжатия : С потерями
    Размер потока : 307 Мбайт (7%)
    Заголовок : DUB (Russian) Невафильм
    Язык : Russian
    Default : Да
    Forced : Нет
    Аудио #2
    Идентификатор : 3
    Формат : AC-3
    Формат/Информация : Audio Coding 3
    Расширение режима : CM (complete main)
    Параметр Endianness формата : Big
    Идентификатор кодека : A_AC3
    Продолжительность : 1 ч. 51 м.
    Вид битрейта : Постоянный
    Битрейт : 384 Кбит/сек
    Каналы : 6 каналов
    Расположение каналов : Front: L C R, Side: L R, LFE
    Частота : 48, 0 КГц
    Битовая глубина : 16 бит
    Метод сжатия : С потерями
    Размер потока : 307 Мбайт (7%)
    Заголовок : MVO (Ukrainian) ТРК Украина
    Язык : Ukrainian
    Default : Нет
    Forced : Нет
    Аудио #3
    Идентификатор : 4
    Формат : AC-3
    Формат/Информация : Audio Coding 3
    Расширение режима : CM (complete main)
    Параметр Endianness формата : Big
    Идентификатор кодека : A_AC3
    Продолжительность : 1 ч. 51 м.
    Вид битрейта : Постоянный
    Битрейт : 384 Кбит/сек
    Каналы : 6 каналов
    Расположение каналов : Front: L C R, Side: L R, LFE
    Частота : 48, 0 КГц
    Битовая глубина : 16 бит
    Метод сжатия : С потерями
    Размер потока : 307 Мбайт (7%)
    Заголовок : Original (English)
    Язык : English
    Default : Нет
    Forced : Нет
    Текст #1
    Идентификатор : 5
    Формат : UTF-8
    Идентификатор кодека : S_TEXT/UTF8
    Идентификатор кодека/Информация : UTF-8 Plain Text
    Заголовок : Rus
    Язык : Russian
    Default : Нет
    Forced : Нет
    Текст #2
    Идентификатор : 6
    Формат : UTF-8
    Идентификатор кодека : S_TEXT/UTF8
    Идентификатор кодека/Информация : UTF-8 Plain Text
    Заголовок : Eng
    Язык : English
    Default : Нет
    Forced : Нет
    Меню
    00: 00: 00.000 : en: 1
    00: 06: 34.000 : en: 2
    00: 15: 24.000 : en: 3
    00: 20: 20.000 : en: 4
    00: 26: 53.000 : en: 5
    00: 32: 01.000 : en: 6
    00: 42: 31.000 : en: 7
    00: 48: 04.000 : en: 8
    00: 55: 51.000 : en: 9
    01: 04: 55.000 : en: 10
    01: 08: 27.000 : en: 11
    01: 11: 57.000 : en: 12
    01: 17: 33.000 : en: 13
    01: 26: 42.000 : en: 14
    01: 33: 08.000 : en: 15
    01: 42: 42.000 : en: 16


    Залил: Soroka1989

    Онлайн видео Комната страха


    Размер скачиваемого торрента: 4.05 GB (4351346559 Bytes)

    Комната страха/Panic Room (2002) WEB-DL 720p | D, P
    загрузка...
    Рейтинг →
     (голосов: 1, оценка 3/5, голосовать можно 1 раз )

    Другие торренты по теме:

  • Комната страха / Panic Room (2002) HDTVRip 1080p | D, P, A.
  • Комната страха / Panic Room (2002) HDTVRip 720p от HQ-ViDEO
  • Комната страха / Fear Chamber (1968) DVDRip | L1
  • Комната страха №205 / 205 - Zimmer der Angst (2011) BDRip 1080p | Unrated Cut | P


    • Комментарии (0):

      Информация

      Информация

        Посетители, находящиеся в группе Гости, не могут оставлять комментарии в данной новости.

        ↓ Меню



        ↓ Опрос

        А Вы добавили сайт в закладки?
        Да
        Не


        Top 10 за месяц (Фильмы)