.
Авторизация | Регистрация
Хочешь лучшие торренты? Добавь свой email!
Добавить




Серена / Serena (2014) DVD-9 скачать торрент бесплатно

Опубликовал: Админ | Дата: 5-07-2015, 05:06 | Просмотров: 140



Детально о кино
Русское название: Серена
Русское название в мировом прокате: Serena
Создали в: 2014
Категория жанра: Драма, экранизация
Главный режиссер: Сюзанна Бир

Актеры
Дженнифер Лоуренс, Брэдли Купер, Рис Иванс, Тоби Джонс, Шон Харрис, Сэм Рид, Ким Бодния, Блэйк Ритсон, Давид Денсик, Чарити Уэйкфилд, Нед Деннехи, Ана Улару, Кристиан МакКэй, Майкл Райан, Марк О’Нил, Рэймонд Варинг, Джим Хай, Бодиль Ёргенсон

Сюжет фильма
Ослепительная красавица Серена выходит замуж за успешного промышленника Джорджа Пембертона. Счастливая пара правит лесозаготовительной империей Пембертонов, и кажется, что нет ничего и никого, кто мог бы встать на пути их полного нежности и страсти брака. Но тайны прошлого и ревность опасны как стихия.

Время просмотра: 01: 50: 01
Перевод текста: Дублированный
Файл
Кодек для видео: MPEG-2
Качество фильма: DVD-9
Информация о видео: MPEG2, NTSC 16: 9 (720x480@853x480) VBR, 23, 976 кадра/сек
Информация о звуке: Русский/Английский DD 5.1 (448 Kbps)
Меню
DVDInfo
Title:
Size: 5.06 Gb ( 5 301 712 KBytes ) - DVD-9
Enabled regions: 1, 2, 3, 4, 5, 6, 7, 8
VTS_01 :
Play Length: 01: 50: 01
Video: NTSC 16: 9 (720x480) VBR, Auto PanScan
Audio:
Russian (Dolby AC3, 6 ch)
English (Dolby AC3, 6 ch)
Menu Video:
NTSC 4: 3 (704x480) VBR
Menu English Language Unit :
Root Menu
MediaInfo
Общее
Полное имя : D: ААА2СЕРЕНАVIDEO_TSVTS_01_1.VOB
Формат : MPEG-PS
Размер файла : 1001 Мбайт
Продолжительность : 20 м.
Режим общего битрейта : Переменный
Общий поток : 6956 Кбит/сек
Видео
Идентификатор : 224 (0xE0)
Формат : MPEG Video
Версия формата : Version 2
Профиль формата : Main@Main
Параметр BVOP формата : Да
Параметр матрицы формата : По умолчанию
Параметр GOP формата : M=3, N=12
Продолжительность : 20 м.
Вид битрейта : Переменный
Битрейт : 5922 Кбит/сек
Максимальный битрейт : 8320 Кбит/сек
Ширина : 720 пикселей
Высота : 480 пикселей
Соотношение сторон : 16: 9
Частота кадров : 23, 976 кадра/сек
Стандарт вещания : NTSC
Цветовое пространство : YUV
Субдискретизация насыщенности : 4: 2: 0
Битовая глубина : 8 бит
Тип развёртки : Прогрессивная
Порядок развёртки : 2: 3 Pulldown
Метод сжатия : С потерями
Бит/(Пиксели*Кадры) : 0.715
TimeCode_FirstFrame : 00: 00: 00;00
TimeCode_Source : Group of pictures t_head
Размер потока : 852 Мбайт (85%)
Аудио #1
Идентификатор : 189 (0xBD)-128 (0x80)
Формат : AC-3
Формат/Информация : Audio Coding 3
Расширение режима : CM (complete main)
Параметр Endianness формата : Big
Режим смешивания : DVD-Video
Продолжительность : 20 м.
Вид битрейта : Постоянный
Битрейт : 448 Кбит/сек
Каналы : 6 каналов
Расположение каналов : Front: L C R, Side: L R, LFE
Частота : 48, 0 КГц
Битовая глубина : 16 бит
Метод сжатия : С потерями
Размер потока : 64, 4 Мбайт (6%)
Аудио #2
Идентификатор : 189 (0xBD)-129 (0x81)
Формат : AC-3
Формат/Информация : Audio Coding 3
Расширение режима : CM (complete main)
Параметр Endianness формата : Big
Режим смешивания : DVD-Video
Продолжительность : 20 м.
Вид битрейта : Постоянный
Битрейт : 448 Кбит/сек
Каналы : 6 каналов
Расположение каналов : Front: L C R, Side: L R, LFE
Частота : 48, 0 КГц
Битовая глубина : 16 бит
Метод сжатия : С потерями
Размер потока : 64, 4 Мбайт (6%)
Меню


Скриншоты

Релиз:
Залил: YArl

Онлайн видео Серена


Размер скачиваемого торрента: 5.06 GB (5428953088 Bytes)

Серена/Serena (2014) DVD-9
загрузка...
Рейтинг →
 (голосов: 1, оценка 5/5, голосовать можно 1 раз )

Другие торренты по теме:

  • Серена (2014) WEBRip скачать через торрент бесплатно
  • Серена / Serena
  • Серена / Serena (2014) BDRip 720p от Leonardo and Scarabey | Чистый звук
  • Серена / Serena (2014) HDRip от Scarabey | Чистый звук
  • Серена / Serena (2014) HDRip от Scarabey | Чистый звук
  • Серена / Serena (2014) BDRip-AVC
  • Руст Серена - Если Жираф танцует с Волком (2015) FB2


    • Комментарии (0):

      Информация

      Информация

        Посетители, находящиеся в группе Гости, не могут оставлять комментарии в данной новости.

        ↓ Меню



        ↓ Опрос

        А Вы добавили сайт в закладки?
        Да
        Не


        Top 10 за месяц (Фильмы)