.
Авторизация | Регистрация
Хочешь лучшие торренты? Добавь свой email!
Добавить
» » Третья мировая (2013) DVDRip-AVC от New-Team скачать торрент бесплатно




    Третья мировая (2013) DVDRip-AVC от New-Team скачать торрент бесплатно

    Опубликовал: Админ | Дата: 5-07-2015, 05:03 | Просмотров: 102



    Снималось в: Россия/ЗАО Дирекция кино
    Категория жанра: драма
    Создали в: 2013
    Время просмотра: ~ 00: 50: 00/серия
    Перевод текста: Не требуется
    Субтитры подготовлены: нет
    Оригинальная аудиодорожка: русский
    Главный режиссер: Александр Котт

    Актеры
    Александр Коршунов, Светлана Смирнова-Марцинкевич, Николай Иванов (III), Мария Луговая, Михаил Гаврилов, Людмила Полякова, Никита Высоцкий, Ирина Основина, Марина Поляк, Анна Галинова, Татьяна Шатилова, Анна Гуляренко, Анна Цуканова, Максим Костромыкин, Леонид Громов, Тамара Акулова, Владимир Меньшов, Валентина Теличкина, Лев Прыгунов, Ольга Науменко, Сергей Романович
    Описание: О трагической истории любви на фоне Карибского кризиса. По сюжету фильма, после обострения отношений двух сверхдержав в разных регионах Советского Союза организованы военные сборы для резервистов. В тихой деревушке, расположенной где-то в средней полосе России, ничего не знают о высоких целях политического руководства СССР и США. Но когда мужчины призывного возраста начинают получать повестки из военкомата, сельчане понимают: началась новая война…

    Качество фильма: DVDRip-AVC / DVD9 R5 - лицензионный диск от компании CD Land
    Тип видео: MKV
    Информация о видео: 704x432@752x432 (1.738: 1), 25.000 fps, MPEG4 AVC ~ 1809 kbps avg, 0.238 bit/pixel
    Информация о звуке: 48 kHz, Dolby AC3, 2 ch, 192 kbps, русский
    Раздача от:
    MediaInfo

    General
    Format : Matroska
    Format version : Version 2
    File size : 756 MiB
    Duration : 52mn 47s
    Overall bit rate : 2 003 Kbps
    Encoded date : UTC 2014-12-18 07: 38: 39
    Writing application : mkvmerge v6.1.0 (;Old Devil;) built on Mar 4 2013 09: 10: 42
    Writing library : libebml v1.3.0 + libmatroska v1.4.0
    Video
    ID : 1
    Format : AVC
    Format/Info : Advanced Video Codec
    Format profile : High@L4.1
    Format settings, CABAC : Yes
    Format settings, ReFrames : 8 frames
    Codec ID : V_MPEG4/ISO/AVC
    Duration : 52mn 47s
    Bit rate : 1 809 Kbps
    Width : 704 pixels
    Height : 432 pixels
    Display aspect ratio : 1.738
    Frame rate : 25.000 fps
    Color space : YUV
    Chroma subsampling : 4: 2: 0
    Bit depth : 8 bits
    Scan type : Progressive
    Bits/(Pixel*Frame) : 0.238
    Stream size : 669 MiB (88%)
    Writing library : x264 core 138 r2356 a1d3d17
    Encoding settings : cabac=1/ref=8/deblock=1: -2: -1/analyse=0x3: 0x113/me=umh/subme=10/psy=1/psy_rd=1.00: 0.05/mixed_ref=1/me_range=32/chroma_me=1/trellis=2/8x8dct=1/cqm=0/deadzone=21, 11/fast_pskip=0/chroma_qp_offset=-3/threads=9/lookahead_threads=1/sliced_threads=0/nr=0/decimate=0/interlaced=0/bluray_compat=0/constrained_intra=0/bframes=8/b_pyramid=2/b_adapt=2/b_bias=0/direct=3/weightb=1/open_gop=0/weightp=2/keyint=250/keyint_min=25/scenecut=40/intra_refresh=0/rc=2pass/mbtree=0/bitrate=1809/ratetol=1.0/qcomp=0.60/qpmin=0/qpmax=69/qpstep=4/cplxblur=20.0/qblur=0.5/ip_ratio=1.40/pb_ratio=1.30/aq=1: 1.00
    Default : Yes
    Forced : No
    Audio
    ID : 2
    Format : AC-3
    Format/Info : Audio Coding 3
    Mode extension : CM (complete main)
    Format settings, Endianness : Big
    Codec ID : A_AC3
    Duration : 52mn 47s
    Bit rate mode : Constant
    Bit rate : 192 Kbps
    Channel(s) : 2 channels
    Channel positions : Front: L R
    Sampling rate : 48.0 KHz
    Bit depth : 16 bits
    Compression mode : Lossy
    Stream size : 72.5 MiB (10%)
    Default : Yes
    Forced : No

    Скриншоты:



    Размер скачиваемого торрента: 2.81 GB (3018103712 Bytes)

    Третья мировая (2013) DVDRip-AVC от New-Team
    загрузка...
    Рейтинг →
     (голосов: 1, оценка 3/5, голосовать можно 1 раз )

    Другие торренты по теме:

  • Третья мировая (2013) DVB от Files-x
  • Третья мировая (2013) SATRip от Files-x
  • Третья мировая (2013) SATRip
  • Третья мировая (2013) HDTV 1080i от MediaClub
  • Третья мировая (2013) HDTVRip от Nikolspup
  • Третья мировая (2013) WEB-DLRip от Generalfilm


    • Комментарии (0):

      Информация

      Информация

        Посетители, находящиеся в группе Гости, не могут оставлять комментарии в данной новости.

        ↓ Меню



        ↓ Опрос

        А Вы добавили сайт в закладки?
        Да
        Не


        Top 10 за месяц (Фильмы)