.
Авторизация | Регистрация
Хочешь лучшие торренты? Добавь свой email!
Добавить
» » Пригородная готика / Suburban Gothic (2014) WEB-DL 720p | L скачать торрент бесплатно




    Пригородная готика / Suburban Gothic (2014) WEB-DL 720p | L скачать торрент бесплатно

    Опубликовал: Админ | Дата: 4-07-2015, 05:08 | Просмотров: 165



    Детально о кино
    Русское название: Пригородная готика
    Русское название в мировом прокате: Suburban Gothic
    Создали в: 2014
    Категория жанра: ужасы, мелодрама, комедия
    Главный режиссер: Ричард Бейтс мл.

    Актеры
    Мэттью Грей Гублер, Кэт Деннингс, Рэй Уайз, Барбара Нивен, Мьюз Уотсон, Сэлли Кёркленд, Мэл Родригез, Джеффри Комбс, Джон Уотерс, Ронни Джин Блевинс

    Сюжет фильма
    У Рэймонда престижная степень магистра делового администрирования, но он не может найти работу. Он может связываться с паранормальными явлениями, но его озадачивает общение в чате с милой девушкой. Выгнанный из большой городской квартиры, Рэймонд возвращается домой к своей властной матери, отцу, бывшему качку, и одноклассникам с пивными животами. Но когда мстительный призрак начинает терроризировать небольшой городок, Рэймонд объединяется с Беккой, местной задиристой барменшой, чтобы разгадать тайну духа, угрожающего жизни каждого человека.


    Снималось в: США/New Normal Films
    Время просмотра: 01: 30: 24
    Тип перевода: Любительское (многоголосое) Андрей Питерский, Камилла Юнусова, DEN904, DeadSno, Izanami, Gyllor, Robi Ainer, перевод Алёна Сергеева

    Файл
    Тип видео: MKV
    Качество фильма: WEB-DL 720p
    Информация о видео: 4005 kb/s, 1280x720
    Информация о звуке: Russian: AC3, 192 kb/s (2 ch)/English: AC3, 384 kb/s (6 ch)
    Субтитры: English
    MI

    Format : Matroska
    Format version : Version 4/Version 2
    File size : 2.95 GiB
    Duration : 1h 30mn
    Overall bit rate : 4 674 Kbps
    Encoded date : UTC 2015-07-04 00: 00: 23
    Writing application : mkvmerge v6.1.0 (;Old Devil;) built on Mar 4 2013 09: 10: 42
    Writing library : libebml v1.3.0 + libmatroska v1.4.0
    Video
    ID : 1
    Format : AVC
    Format/Info : Advanced Video Codec
    Format profile : High@L3.1
    Format settings, CABAC : No
    Format settings, ReFrames : 2 frames
    Codec ID : V_MPEG4/ISO/AVC
    Duration : 1h 30mn
    Bit rate : 4 005 Kbps
    Width : 1 280 pixels
    Height : 720 pixels
    Display aspect ratio : 16: 9
    Frame rate mode : Constant
    Frame rate : 23.976 fps
    Color space : YUV
    Chroma subsampling : 4: 2: 0
    Bit depth : 8 bits
    Scan type : Progressive
    Bits/(Pixel*Frame) : 0.181
    Stream size : 2.53 GiB (86%)
    Language : English
    Default : Yes
    Forced : No
    Color range : Limited
    Color primaries : BT.709
    Transfer characteristics : BT.709
    Matrix coefficients : BT.709
    Audio #1
    ID : 2
    Format : AC-3
    Format/Info : Audio Coding 3
    Mode extension : CM (complete main)
    Format settings, Endianness : Big
    Codec ID : A_AC3
    Duration : 1h 30mn
    Bit rate mode : Constant
    Bit rate : 192 Kbps
    Channel(s) : 2 channels
    Channel positions : Front: L R
    Sampling rate : 48.0 KHz
    Bit depth : 16 bits
    Compression mode : Lossy
    Stream size : 124 MiB (4%)
    Language : Russian
    Default : Yes
    Forced : No
    Audio #2
    ID : 3
    Format : AC-3
    Format/Info : Audio Coding 3
    Mode extension : CM (complete main)
    Format settings, Endianness : Big
    Codec ID : A_AC3
    Duration : 1h 30mn
    Bit rate mode : Constant
    Bit rate : 384 Kbps
    Channel(s) : 6 channels
    Channel positions : Front: L C R, Side: L R, LFE
    Sampling rate : 48.0 KHz
    Bit depth : 16 bits
    Compression mode : Lossy
    Stream size : 248 MiB (8%)
    Language : English
    Default : No
    Forced : No
    Text
    ID : 4
    Format : UTF-8
    Codec ID : S_TEXT/UTF8
    Codec ID/Info : UTF-8 Plain Text
    Language : English
    Default : No
    Forced : No
    Menu
    00: 00: 00.000 : en: 1
    00: 07: 54.000 : en: 2
    00: 16: 00.000 : en: 3
    00: 24: 57.000 : en: 4
    00: 32: 20.000 : en: 5
    00: 40: 39.000 : en: 6
    00: 50: 40.000 : en: 7
    00: 58: 42.000 : en: 8
    01: 05: 17.000 : en: 9
    01: 14: 42.000 : en: 10
    01: 21: 01.000 : en: 11
    01: 26: 43.000 : en: 12
    Скриншоты




    Онлайн видео Пригородная готика


    Размер скачиваемого торрента: 2.95 GB (3168702341 Bytes)

    Пригородная готика/Suburban Gothic (2014) WEB-DL 720p | L
    загрузка...
    Рейтинг →
     (голосов: 1, оценка 4/5, голосовать можно 1 раз )

    Другие торренты по теме:

  • Пригородная готика / Suburban Gothic (2014) WEB-DLRip | L
  • Пригородная готика / Suburban Gothic / 2014 / ЛМ / HDRip


    • Комментарии (0):

      Информация

      Информация

        Посетители, находящиеся в группе Гости, не могут оставлять комментарии в данной новости.

        ↓ Меню



        ↓ Опрос

        А Вы добавили сайт в закладки?
        Да
        Не


        Top 10 за месяц (Фильмы)