.
Авторизация | Регистрация
Хочешь лучшие торренты? Добавь свой email!
Добавить
» » Киборг 2: Стеклянная тень / Cyborg 2: Glass Shadow (1993) WEB-DL 720p | P, A скачать торрент бесплатно




    Киборг 2: Стеклянная тень / Cyborg 2: Glass Shadow (1993) WEB-DL 720p | P, A скачать торрент бесплатно

    Опубликовал: Админ | Дата: 3-07-2015, 05:09 | Просмотров: 139



    Детально о кино
    Русское название: Киборг 2: Стеклянная тень
    Русское название в мировом прокате: Cyborg 2: Glass Shadow
    Создали в: 1993
    Категория жанра: фантастика, боевик, триллер, киберпанк
    Главный режиссер: Майкл Шродер

    Актеры
    Элиас Котеас— Колсон Кольт Рикс, Анджелина Джоли— Казелла Каш Риз, Аллен Гарфилд— Мартин Данн, Билли Драго— Дэнни Бенч, Джек Пэлэнс— Мэрси, Рик Янг— Бобби Лин, Трэйси Уолтер— Вилд Кард, Карен Шеперд— Шэн, Рене Гриффин— Дрена.

    Сюжет фильма

    В 2074 году Земля охвачена борьбой крупнейших корпораций. Кобайяши Электроникс (Япония) и Пинуил Роботикс (США) сражаются за контролем над индустрией производства программного обеспечения и производства киборгов. Киборги заменили людей во всех отношениях: от солдата на поле боя до проститутки в борделе. На карту поставлены миллиарды долларов.
    В американской корпорации создан киборг в виде красивой женщины, в тело которой была введена мощнейшая жидкая взрывчатка. Эта киборгша должна была пойти на переговоры с руководством японской корпорации и там взорваться. После этого акции бы упали, и конкурент был бы устранен. Все, наверное, так и произошло бы, но красоткой увлекся ее учитель каратэ. Когда она узнала, что обречена на смерть своими творцами, он пришел ей на помощь и началась погоня…

    Снималось в: США
    Киностудия: Trimark Pictures, Stargate Films Inc.
    Время просмотра: 01: 39: 20
    Перевод текста: Профессиональный многоголосый
    Файл
    Качество фильма: WEB-DL 720p
    Информация о видео: 1280x542 (2, 35: 1), 23.976 fps, MPEG-4 AVC, 3975 Kbps
    Информация о звуке:
    Информация о звуке #1: AC3, 448 Kbps, 48.0 KHz, 6 ch (Rus)Профессиональный многоголосый
    Информация о звуке #2: AC3, 192 Kbps, 48.0 KHz, 2 ch (Rus)Авторский одноголосый, С.Визгунов
    Информация о звуке #3: AC3, 448 Kbps, 48.0 KHz, 6 ch (Eng)Оригинал
    Субтитры: Английские
    Скриншоты


    MediaInfo
    Формат : Matroska
    Версия формата : Version 2
    Размер файла : 3, 58 Гбайт
    Продолжительность : 1 ч. 39 м.
    Общий поток : 5165 Кбит/сек
    Дата кодирования : UTC 2015-07-02 18: 06: 33
    Программа кодирования : mkvmerge v5.4.0 (;Piper;) built on Mar 10 2012 13: 34: 39
    Библиотека кодирования : libebml v1.2.3 + libmatroska v1.3.0
    Видео
    Идентификатор : 1
    Формат : AVC
    Формат/Информация : Advanced Video Codec
    Профиль формата : Main@L3.1
    Параметр CABAC формата : Нет
    Параметр ReFrames формата : 2 кадра
    Идентификатор кодека : V_MPEG4/ISO/AVC
    Продолжительность : 1 ч. 39 м.
    Битрейт : 3975 Кбит/сек
    Ширина : 1280 пикселей
    Высота : 542 пикселя
    Соотношение сторон : 2, 35: 1
    Режим частоты кадров : Постоянный
    Частота кадров : 23, 976 кадра/сек
    Цветовое пространство : YUV
    Субдискретизация насыщенности : 4: 2: 0
    Битовая глубина : 8 бит
    Тип развёртки : Прогрессивная
    Бит/(Пиксели*Кадры) : 0.239
    Размер потока : 2, 76 Гбайт (77%)
    Заголовок : Cyborg 2: Glass Shadow/Киборг 2: Стеклянная тень (1993)
    Язык : English
    Default : Да
    Forced : Нет
    Основные цвета : BT.709
    Характеристики трансфера : BT.709
    Коэффициенты матрицы : BT.709
    colour_range : Limited
    Аудио #1
    Идентификатор : 2
    Формат : AC-3
    Формат/Информация : Audio Coding 3
    Расширение режима : CM (complete main)
    Параметр Endianness формата : Big
    Идентификатор кодека : A_AC3
    Продолжительность : 1 ч. 39 м.
    Вид битрейта : Постоянный
    Битрейт : 448 Кбит/сек
    Каналы : 6 каналов
    Расположение каналов : Front: L C R, Side: L R, LFE
    Частота : 48, 0 КГц
    Битовая глубина : 16 бит
    Метод сжатия : С потерями
    Размер потока : 318 Мбайт (9%)
    Заголовок : MVO (Russian)
    Язык : Russian
    Default : Да
    Forced : Нет
    Аудио #2
    Идентификатор : 3
    Формат : AC-3
    Формат/Информация : Audio Coding 3
    Расширение режима : CM (complete main)
    Параметр Endianness формата : Big
    Идентификатор кодека : A_AC3
    Продолжительность : 1 ч. 39 м.
    Вид битрейта : Постоянный
    Битрейт : 192 Кбит/сек
    Каналы : 2 канала
    Расположение каналов : Front: L R
    Частота : 48, 0 КГц
    Битовая глубина : 16 бит
    Метод сжатия : С потерями
    Размер потока : 136 Мбайт (4%)
    Заголовок : AVO (С.Визгунов)
    Язык : Russian
    Default : Нет
    Forced : Нет
    Аудио #3
    Идентификатор : 4
    Формат : AC-3
    Формат/Информация : Audio Coding 3
    Расширение режима : CM (complete main)
    Параметр Endianness формата : Big
    Идентификатор кодека : A_AC3
    Продолжительность : 1 ч. 39 м.
    Вид битрейта : Постоянный
    Битрейт : 448 Кбит/сек
    Каналы : 6 каналов
    Расположение каналов : Front: L C R, Side: L R, LFE
    Частота : 48, 0 КГц
    Битовая глубина : 16 бит
    Метод сжатия : С потерями
    Размер потока : 318 Мбайт (9%)
    Заголовок : Original (English)
    Язык : English
    Default : Нет
    Forced : Нет
    Текст
    Идентификатор : 5
    Формат : UTF-8
    Идентификатор кодека : S_TEXT/UTF8
    Идентификатор кодека/Информация : UTF-8 Plain Text
    Заголовок : Eng
    Язык : English
    Default : Нет
    Forced : Нет
    Меню
    00: 00: 00.000 : en: Chapter 1
    00: 05: 05.000 : en: Chapter 2
    00: 13: 57.000 : en: Chapter 3
    00: 22: 53.000 : en: Chapter 4
    00: 31: 59.000 : en: Chapter 5
    00: 42: 12.000 : en: Chapter 6
    00: 52: 58.000 : en: Chapter 7
    01: 01: 37.000 : en: Chapter 8
    01: 11: 47.000 : en: Chapter 9
    01: 19: 41.000 : en: Chapter 10
    01: 28: 23.000 : en: Chapter 11
    01: 35: 32.000 : en: Chapter 12

    Релиз подготовил: Dreven
    Залил: Soroka1989

    Онлайн видео Киборг 2: Стеклянная тень


    Размер скачиваемого торрента: 3.58 GB (3848640323 Bytes)

    Киборг 2: Стеклянная тень/Cyborg 2: Glass Shadow (1993) WEB-DL 720p | P, A
    загрузка...
    Рейтинг →
     (голосов: 1, оценка 4/5, голосовать можно 1 раз )

    Другие торренты по теме:

  • Киборг 2: Стеклянная тень / Cyborg 2: Glass Shadow (1993) WEB-DL 720p | P
  • Киборг-охотник 2 / Cyber-Tracker 2 (1995) DVDRip скачать через торрент бесплатно
  • Киборг-полицейский 2 / Cyborg Cop II (1994) DVDRip
  • Киборг / Cyborg / 1989 / 4 x ПМ, 3 x ПД, 2 x ПО, АП (Гаврилов, Яроцкий, Дохалов, Володарский), СТ / BDRip (1080p)


    • Комментарии (0):

      Информация

      Информация

        Посетители, находящиеся в группе Гости, не могут оставлять комментарии в данной новости.

        ↓ Меню



        ↓ Опрос

        А Вы добавили сайт в закладки?
        Да
        Не


        Top 10 за месяц (Фильмы)