.
Авторизация | Регистрация
Хочешь лучшие торренты? Добавь свой email!
Добавить
» » Связанные местью / Reversal (2015) WEB-DL 720p | L1 скачать торрент бесплатно




    Связанные местью / Reversal (2015) WEB-DL 720p | L1 скачать торрент бесплатно

    Опубликовал: Админ | Дата: 3-07-2015, 05:07 | Просмотров: 227



    Детально о кино
    Русское название: Связанные местью
    Русское название в мировом прокате: Reversal (Bound to Vengeance)
    Создали в: 2015
    Категория жанра: ужасы, триллер
    Главный режиссер: Хосе Мануэль Кравиотто

    Актеры
    Тина Ивлев, Ричард Тайсон, Бьянка Малино, Эми Окуда, Стефани Чарльз, Фиорелла Гарсиа, Дастин Куик, Скотт Вэнс, Рик Сарабиа, Нихан Гар

    Сюжет фильма
    Фильм повествует о молодой девушке, которую похитили и посадили на цепь в темном, сыром подвале для извращенных утех. Однажды ей удается вырваться, и месть становится ее главной целью. Но прежде, чем поставить точку, она должна попытаться спасти остальных узниц.


    Снималось в: США/Dark Factory Entertainment, Romark Entertainment
    Время просмотра: 01: 19: 34
    Тип перевода: Любительское (одноголосое) datynet, перевод Куценко/Любительское (одноголосое) PashaUP, перевод Janetta
    Файл
    Тип видео: MKV
    Качество фильма: WEB-DL 720p
    Информация о видео: 3933 kb/s, 1280x532
    Информация о звуке 1: Russian: AC3, 384 kb/s (6 ch) datynet | Ненормативная лексика |
    Информация о звуке 2: Russian: AC3, 192 kb/s (2 ch) PashaUP
    Информация о звуке 3: English: AC3, 384 kb/s (6 ch)
    Субтитры: English
    MI

    Format : Matroska
    Format version : Version 4/Version 2
    File size : 2.77 GiB
    Duration : 1h 19mn
    Overall bit rate : 4 992 Kbps
    Movie name : anton1
    Encoded date : UTC 2015-07-02 07: 05: 50
    Writing application : mkvmerge v6.9.1 (;Blue Panther;) 64bit built on Apr 18 2014 18: 23: 38
    Writing library : libebml v1.3.0 + libmatroska v1.4.1
    Video
    ID : 1
    Format : AVC
    Format/Info : Advanced Video Codec
    Format profile : Main@L3.1
    Format settings, CABAC : No
    Format settings, ReFrames : 2 frames
    Codec ID : V_MPEG4/ISO/AVC
    Duration : 1h 19mn
    Bit rate : 3 933 Kbps
    Width : 1 280 pixels
    Height : 532 pixels
    Display aspect ratio : 2.40: 1
    Frame rate mode : Constant
    Frame rate : 23.976 fps
    Color space : YUV
    Chroma subsampling : 4: 2: 0
    Bit depth : 8 bits
    Scan type : Progressive
    Bits/(Pixel*Frame) : 0.241
    Stream size : 2.19 GiB (79%)
    Language : English
    Default : Yes
    Forced : No
    Color range : Limited
    Color primaries : BT.709
    Transfer characteristics : BT.709
    Matrix coefficients : BT.709
    Audio #1
    ID : 2
    Format : AC-3
    Format/Info : Audio Coding 3
    Mode extension : CM (complete main)
    Format settings, Endianness : Big
    Codec ID : A_AC3
    Duration : 1h 19mn
    Bit rate mode : Constant
    Bit rate : 384 Kbps
    Channel(s) : 6 channels
    Channel positions : Front: L C R, Side: L R, LFE
    Sampling rate : 48.0 KHz
    Bit depth : 16 bits
    Compression mode : Lossy
    Stream size : 219 MiB (8%)
    Title : datynet
    Language : Russian
    Default : Yes
    Forced : No
    Audio #2
    ID : 3
    Format : AC-3
    Format/Info : Audio Coding 3
    Mode extension : CM (complete main)
    Format settings, Endianness : Big
    Codec ID : A_AC3
    Duration : 1h 19mn
    Bit rate mode : Constant
    Bit rate : 192 Kbps
    Channel(s) : 2 channels
    Channel positions : Front: L R
    Sampling rate : 48.0 KHz
    Bit depth : 16 bits
    Compression mode : Lossy
    Stream size : 109 MiB (4%)
    Title : PashaUP
    Language : Russian
    Default : No
    Forced : No
    Audio #3
    ID : 4
    Format : AC-3
    Format/Info : Audio Coding 3
    Mode extension : CM (complete main)
    Format settings, Endianness : Big
    Codec ID : A_AC3
    Duration : 1h 19mn
    Bit rate mode : Constant
    Bit rate : 384 Kbps
    Channel(s) : 6 channels
    Channel positions : Front: L C R, Side: L R, LFE
    Sampling rate : 48.0 KHz
    Bit depth : 16 bits
    Compression mode : Lossy
    Stream size : 219 MiB (8%)
    Title : original
    Language : English
    Default : No
    Forced : No
    Text
    ID : 5
    Format : UTF-8
    Codec ID : S_TEXT/UTF8
    Codec ID/Info : UTF-8 Plain Text
    Language : English
    Default : No
    Forced : No
    Menu
    00: 00: 00.000 : en: 1
    00: 19: 25.000 : en: 2
    00: 31: 49.000 : en: 3
    00: 44: 17.000 : en: 4
    00: 54: 13.000 : en: 5
    01: 06: 30.000 : en: 6
    01: 16: 07.000 : en: 7
    Скриншоты





    Онлайн видео Связанные местью


    Размер скачиваемого торрента: 2.77 GB (2979057710 Bytes)

    Связанные местью/Reversal (2015) WEB-DL 720p | L1
    загрузка...
    Рейтинг →
     (голосов: 1, оценка 4/5, голосовать можно 1 раз )

    Другие торренты по теме:

  • Связанные местью / Reversal / Bound to Vengeance (2015) WEB-DLRip | Sub
  • Связанные местью / Reversal (2015) WEB-DLRip | L1
  • Связанные местью / Reversal (2015) WEB-DL 720p | L1
  • Связанные местью / Reversal (2015) WEB-DLRip | L1
  • Связанные местью / Reversal (2015) WEB-DLRip от MegaPeer | PashaUP
  • Связанные местью / Bound to Vengeance / 2015 / ПД (RG.paravozik) / WEB-DLRip


    • Комментарии (0):

      Информация

      Информация

        Посетители, находящиеся в группе Гости, не могут оставлять комментарии в данной новости.

        ↓ Меню



        ↓ Опрос

        А Вы добавили сайт в закладки?
        Да
        Не


        Top 10 за месяц (Фильмы)