.
Авторизация | Регистрация
Хочешь лучшие торренты? Добавь свой email!
Добавить
» » Прогулка / The Walk (2015) WEBRip 1080p | Трейлер скачать торрент бесплатно




    Прогулка / The Walk (2015) WEBRip 1080p | Трейлер скачать торрент бесплатно

    Опубликовал: Админ | Дата: 3-07-2015, 05:07 | Просмотров: 192



    Создали в: 2015
    Создали в: США
    Категория жанра: триллер, драма, приключения, биография
    Главный режиссер: Роберт Земекис
    Продюсеры: Джек Рэпк, Том Ротман, Стив Старки
    Актеры: Джозеф Гордон-Левитт, Бен Кингсли, Шарлотта Ле Бон, Джеймс Бэдж Дэйл, Бен, Шварц, Стив Валентайн, Серджо Ди Зио, Марк Камачо, Бенедикт Сэмюэл, Кваси Сонгуи
    Описание фильма:
    На Луне мы успели побывать уже 12 раз. А пройти над бездной по стальному канату, натянутому между башнями-близнецами в Нью-Йорке удалось всего лишь одному человеку в мире — воздушному акробату Филиппу Пети, который не смог бы воплотить в жизнь этот дерзкий и безумный план без помощи и поддержки друзей и своего наставника Папы Руди.
    Дата мировой премьеры: 25 сентября 2015
    Дата российской премьеры: 8 октября 2015

    Время просмотра: 00: 02: 28
    Качество фильма видео: WEBRip 1080p
    Информация о видеокодек: MPEG-4 AVC/H.264
    Битрейт видео: 79391 Кбит/сек
    Размер скачиваемого торрента кадра: 1920x800
    Информация о звукекодек: AAC
    Битрейт аудио: 90, 4 Кбит/сек
    MediaInfo:

    Общее
    Полное имя : Walk.mp4
    Формат : MPEG-4
    Профиль формата : Base Media
    Идентификатор кодека : isom
    Размер файла : 143 Мбайт
    Продолжительность : 2 м. 28 с.
    Режим общего битрейта : Переменный
    Общий поток : 8034 Кбит/сек
    Дата кодирования : UTC 2015-07-02 07: 33: 43
    Дата пометки : UTC 2015-07-02 07: 33: 43
    Программа кодирования : Lavf51.12.1
    Видео
    Идентификатор : 1
    Формат : AVC
    Формат/Информация : Advanced Video Codec
    Профиль формата : Baseline@L4
    Параметр CABAC формата : Нет
    Параметр ReFrames формата : 1 кадр
    Параметр GOP формата : M=1, N=12
    Идентификатор кодека : avc1
    Идентификатор кодека/Информация : Advanced Video Coding
    Продолжительность : 2 м. 28 с.
    Битрейт : 7939 Кбит/сек
    Ширина : 1920 пикселей
    Высота : 800 пикселей
    Соотношение сторон : 2, 40: 1
    Режим частоты кадров : Постоянный
    Частота кадров : 24, 000 кадра/сек
    Цветовое пространство : YUV
    Субдискретизация насыщенности : 4: 2: 0
    Битовая глубина : 8 бит
    Тип развёртки : Прогрессивная
    Бит/(Пиксели*Кадры) : 0.215
    Размер потока : 141 Мбайт (99%)
    Дата кодирования : UTC 2015-07-02 07: 33: 43
    Дата пометки : UTC 2015-07-02 07: 33: 43
    Аудио
    Идентификатор : 2
    Формат : AAC
    Формат/Информация : Advanced Audio Codec
    Профиль формата : LC
    Идентификатор кодека : 40
    Продолжительность : 2 м. 28 с.
    Вид битрейта : Переменный
    Битрейт : 90, 4 Кбит/сек
    Каналы : 2 канала
    Расположение каналов : Front: L R
    Частота : 48, 0 КГц
    Метод сжатия : С потерями
    Размер потока : 1, 60 Мбайт (1%)
    Дата кодирования : UTC 2015-07-02 07: 33: 43
    Дата пометки : UTC 2015-07-02 07: 33: 43

    Скриншоты



    Скриншоты



    Залил: Jokerzv

    Онлайн видео Прогулка


    Размер скачиваемого торрента: 142.61 MB (149542460 Bytes)

    Прогулка/The Walk (2015) WEBRip 1080p | Трейлер
    загрузка...
    Рейтинг →
     (голосов: 1, оценка 4/5, голосовать можно 1 раз )

    Другие торренты по теме:

  • Большая прогулка / La grande vadrouille (1966) BDRip-AVC
  • Долгая прогулка / A Long Walk / Nagai sanpo (2006) DVDRip | L1
  • Прогулка с динозаврами 3D / Walking with Dinosaurs 3D (2013) HD 1080p | Трейлер
  • Прогулка в облаках / A Walk in the Clouds (1995) HDRip от Scarabey | Р
  • Большая прогулка / La grande vadrouille (1966) BDRip 1080p от denis 100
  • Большая прогулка / La Grande Vadrouille (1966) BDRip от New-Team
  • Большая прогулка / La grande vadrouille (1966) BDRip от HQCLUB
  • Большая прогулка / La grande vadrouille (1966) BDRip от by Magy® | Rus.Titre скачать через торрент бесплатно


    • Комментарии (0):

      Информация

      Информация

        Посетители, находящиеся в группе Гости, не могут оставлять комментарии в данной новости.

        ↓ Меню



        ↓ Опрос

        А Вы добавили сайт в закладки?
        Да
        Не


        Top 10 за месяц (Фильмы)