.
Авторизация | Регистрация
Хочешь лучшие торренты? Добавь свой email!
Добавить
» » Всадники / The Horsemen (1971) DVDRip скачать торрент бесплатно




    Всадники / The Horsemen (1971) DVDRip скачать торрент бесплатно

    Опубликовал: Админ | Дата: 2-07-2015, 05:10 | Просмотров: 120



    Снималось в: США
    Создали в: Columbia Pictures Corporation, Frankenheimer-Lewis Productions
    Категория жанра: Драма, приключения
    Создали в: 1971
    Время просмотра: 01: 45: 07
    Перевод текста: Профессиональный многоголосый
    Оригинальная аудиодорожка: Английская
    Главный режиссер: Джон Франкенхаймер

    Актеры
    Омар Шариф, Ли Тейлор-Янг, Джек Пэланс, Давид де Кейзер, Питер Джефри, Мохаммад Шамси, Джордж Мёрселл, Эрик Полманн, Карлос Касаравилла, Марк Коллеано, П. Де Кеведо, Деспо Диамантиду, Вернон Добчефф, Саид Джаффри, Леон Лиссек, Рикардо Паласиос, Милтон Рейд
    Описание: Афганистан, середина двадцатого века. В Кабуле утраивается самый большой турнир по национальной конной игре Базкаши или захвата козла. Победитель получит звание самого ловкого всадника. Терсен вождь одного из афганских племен обещает сыну Уразу отдать великолепного скакуна по имени Джахил, если он победит в скачках. Дан старт. Десятки всадников, подняв облака пыли, понеслись по кругу и вот уже победа близка, но в азарте схватки главный герой ломает ногу...

    Исходник: DVD5 R1
    Тип релиза: DVDRip
    Контейнер: AVI
    Информация о видео: 704x304 (2.32: 1), 25 fps, XviD MPEG-4 ~1554 kbps avg, 0.29 bit/pixel
    Информация о звуке 1: 48 kHz, AC3 Dolby Digital, 2/0 (L, R) ch, ~192 kbps (русский)
    Информация о звуке 2: 48 kHz, AC3 Dolby Digital, 2/0 (L, R) ch, ~192 kbps (английский)
    MediaInfo

    Общее
    Полное имя : D: ААА2Всадники.avi
    Формат : AVI
    Формат/Информация : Audio Video Interleave
    Размер файла : 1, 46 Гбайт
    Продолжительность : 1 ч. 47 м.
    Общий поток : 1946 Кбит/сек
    Программа кодирования : VirtualDubMod 1.5.10.2 (build 2540/release)
    Библиотека кодирования : VirtualDubMod build 2540/release
    Видео
    Идентификатор : 0
    Формат : MPEG-4 Visual
    Профиль формата : Advanced Simple@L5
    Параметр BVOP формата : 2
    Параметр QPel формата : Нет
    Параметр GMC формата : Без точки перехода
    Параметр матрицы формата : Default (MPEG)
    Режим смешивания : Сжатый битовый поток
    Идентификатор кодека : XVID
    Идентификатор кодека/Подсказка : XviD
    Продолжительность : 1 ч. 47 м.
    Битрейт : 1556 Кбит/сек
    Ширина : 704 пикселя
    Высота : 304 пикселя
    Соотношение сторон : 2, 35: 1
    Частота кадров : 25, 000 кадров/сек
    Цветовое пространство : YUV
    Субдискретизация насыщенности : 4: 2: 0
    Битовая глубина : 8 бит
    Тип развёртки : Прогрессивная
    Метод сжатия : С потерями
    Бит/(Пиксели*Кадры) : 0.291
    Размер потока : 1, 17 Гбайт (80%)
    Библиотека кодирования : XviD 1.2.1 (UTC 2008-12-04)
    Аудио #1
    Идентификатор : 1
    Формат : AC-3
    Формат/Информация : Audio Coding 3
    Расширение режима : CM (complete main)
    Параметр Endianness формата : Big
    Идентификатор кодека : 2000
    Продолжительность : 1 ч. 45 м.
    Вид битрейта : Постоянный
    Битрейт : 192 Кбит/сек
    Каналы : 2 канала
    Расположение каналов : Front: L R
    Частота : 48, 0 КГц
    Битовая глубина : 16 бит
    Метод сжатия : С потерями
    Размер потока : 144 Мбайт (10%)
    Выравнивание : Разделение по промежуткам
    Продолжительность промежутка : 41 мс. (1, 02 видеокадр)
    Время предзагрузки промежутка : 500 мс.
    Аудио #2
    Идентификатор : 2
    Формат : AC-3
    Формат/Информация : Audio Coding 3
    Расширение режима : CM (complete main)
    Параметр Endianness формата : Big
    Идентификатор кодека : 2000
    Продолжительность : 1 ч. 45 м.
    Вид битрейта : Постоянный
    Битрейт : 192 Кбит/сек
    Каналы : 2 канала
    Расположение каналов : Front: L R
    Частота : 48, 0 КГц
    Битовая глубина : 16 бит
    Метод сжатия : С потерями
    Размер потока : 144 Мбайт (10%)
    Выравнивание : Разделение по промежуткам
    Продолжительность промежутка : 41 мс. (1, 02 видеокадр)
    Время предзагрузки промежутка : 500 мс.

    Скриншоты


    Релиз:
    Залил: YArl

    Онлайн видео Всадники


    Размер скачиваемого торрента: 1.46 GB (1567746048 Bytes)

    Всадники/The Horsemen (1971) DVDRip
    загрузка...
    Рейтинг →
     (голосов: 1, оценка 5/5, голосовать можно 1 раз )

    Другие торренты по теме:

  • Всадники ниоткуда 01. Всадники ниоткуда
  • Драконы и всадники Олуха / Dragons: Riders of Berk (2012) WEB-DLRip | Невафильм
  • Всадники (2007) DVDRip-AVC от Тorrent-Хzona
  • Драконы и всадники Олуха / Dragons: Riders of Berk (2012) WEB-DLRip от Youtracker | D, P
  • Драконы и всадники Олуха / Dragons: Riders of Berk (2012) WEB-DL 1080p | Невафильм
  • Драконы и всадники Олуха / Dragons: Riders of Berk (2012) WEB-DL 720p | Невафильм
  • Всадники Судьбы: Дикая Охота / Riddles Of Fate: Wild Hunt CE (2013) РС
  • Драконы и всадники Олуха / Dragons: Riders of Berk (2012-2013) DVB | Невафильм скачать через торрент бесплатно


    • Комментарии (0):

      Информация

      Информация

        Посетители, находящиеся в группе Гости, не могут оставлять комментарии в данной новости.

        ↓ Меню



        ↓ Опрос

        А Вы добавили сайт в закладки?
        Да
        Не


        Top 10 за месяц (Фильмы)