.
Авторизация | Регистрация
Хочешь лучшие торренты? Добавь свой email!
Добавить
» » Я счастлив, что моя мать жива / Je suis heureux que ma mre soit vivante (2009) DVDRip скачать торрент бесплатно




    Я счастлив, что моя мать жива / Je suis heureux que ma mre soit vivante (2009) DVDRip скачать торрент бесплатно

    Опубликовал: Админ | Дата: 2-07-2015, 05:08 | Просмотров: 119



    Детально о кино
    Русское название: Я счастлив, что моя мать жива
    Русское название в мировом прокате: Je suis heureux que ma m?re soit vivante
    Создали в: 2009
    Категория жанра: драма
    Главный режиссер: Клод Миллер, Натан Миллер/Claude Miller, Nathan Miller

    Актеры
    Винсент Ротье, Софи Каттани, Кристин Китти, Ив Верховен, Максим Ренард, Оливье Герите, Лудо Харли, Габен Лефевр, Квентин Гонзалез, Шанталь Банлье

    Сюжет фильма

    Мне 20 лет. Меня зовут Тома. Тома Жюве. Но это мое ненастоящее имя. Мое реальное имя — Томми Мартино. Я сменил его, потому что моя мать, Джули Мартино, бросила меня и моего маленького брата, когда мне было 4, а ему 2 года. Почему она так сделала?.. Я знаю, что настоящая причина в том, что мы мешали ей жить своей жизнью, о которой она мечтала. Я нашел свою мать год назад, у нее есть еще один сын, Фредерик. Ему 7 лет, мне сегодня — 20. И как некоторые мужчины, у которых есть две девушки одновременно, у меня было сразу две матери: моя настоящая мать и мадам Жюве, приемная, которая вырастила меня, которая пахла сиренью и нежно прижимала меня к своей прекрасной груди. И так как я нашел свою мать, я жил сначала с одной, а потом с другой, и ни одна из них не подозревала об этом. У меня было две матери и, возможно, одна была лишней…

    Снималось в: Франция
    Время просмотра: 01: 26: 48
    Перевод текста: Профессиональный (многоголосый закадровый) | Лицензия
    Файл
    Кодек для видео: XviD/AC3
    Качество фильма: DVDRip
    Информация о видео: XviD, 640x352 (1.82: 1), 25 fps, ~985 kbps, 0.17 bit/pixel
    Информация о звуке: AC3, 48 kHz, 2/0 (L, R) ch, ~256 kbps
    Скриншоты
    Screenshots
    MediaInfo
    General
    Complete name : I;m Glad My Mother Is Alive.avi
    Format : AVI
    Format/Info : Audio Video Interleave
    File size : 777 MiB
    Duration : 1h 26mn
    Overall bit rate : 1 251 Kbps
    Writing application : VirtualDubMod 1.5.10.2 (build 2540/release)
    Writing library : VirtualDubMod build 2540/release
    Video
    ID : 0
    Format : MPEG-4 Visual
    Format profile : Advanced Simple@L5
    Format settings, BVOP : 2
    Format settings, QPel : No
    Format settings, GMC : No warppoints
    Format settings, Matrix : Default (H.263)
    Codec ID : XVID
    Codec ID/Hint : XviD
    Duration : 1h 26mn
    Bit rate : 985 Kbps
    Width : 640 pixels
    Height : 352 pixels
    Display aspect ratio : 16: 9
    Frame rate : 25.000 fps
    Color space : YUV
    Chroma subsampling : 4: 2: 0
    Bit depth : 8 bits
    Scan type : Progressive
    Compression mode : Lossy
    Bits/(Pixel*Frame) : 0.175
    Stream size : 612 MiB (79%)
    Writing library : XviD 1.2.1 (UTC 2008-12-04)
    Audio
    ID : 1
    Format : AC-3
    Format/Info : Audio Coding 3
    Mode extension : CM (complete main)
    Format settings, Endianness : Big
    Codec ID : 2000
    Duration : 1h 26mn
    Bit rate mode : Constant
    Bit rate : 256 Kbps
    Channel(s) : 2 channels
    Channel positions : Front: L R
    Sampling rate : 48.0 KHz
    Bit depth : 16 bits
    Compression mode : Lossy
    Delay relative to video : 27ms
    Stream size : 159 MiB (20%)
    Alignment : Split accross interleaves
    Interleave, duration : 40 ms (1.00 video frame)
    Interleave, preload duration : 500 ms


    Онлайн видео Я счастлив, что моя мать жива


    Размер скачиваемого торрента: 776.78 MB (814512128 Bytes)

    Я счастлив, что моя мать жива/Je suis heureux que ma mre soit vivante (2009) DVDRip
    загрузка...
    Рейтинг →
     (голосов: 1, оценка 4/5, голосовать можно 1 раз )

    Другие торренты по теме:

  • Я тебя люблю, я тоже не люблю / Я тебя люблю, я тебя тоже...нет / Je taime moi non plus (1976) DVDRip | L1 от AndreSweet
  • Я стеснительный, но я лечусь / Я робкий, но я лечусь / Je suis timide... mais je me soigne (1978) DVDRip-AVC от ExKinoRay | P2
  • Суд – это я / I, the Jury (1982) BDRip-AVC | P, A
  • Я могу (2017) SATRip
  • Кого хочу я больше / Cosa voglio di piu (2010) BDRip 720 | P
  • Кого хочу я больше / Cosa voglio di piu (2010) BDRip 1080 | P
  • Я желаю вам любви / Je vous souhaite detre follement aimee (2015) WEB-DLRip | Sub
  • Я и Наполеон / N (Io e Napoleone) (2006) DVDRip | P


    • Комментарии (0):

      Информация

      Информация

        Посетители, находящиеся в группе Гости, не могут оставлять комментарии в данной новости.

        ↓ Меню



        ↓ Опрос

        А Вы добавили сайт в закладки?
        Да
        Не


        Top 10 за месяц (Фильмы)