.
Авторизация | Регистрация
Хочешь лучшие торренты? Добавь свой email!
Добавить
» » Свет над Россией (1947) DVDRip от New-Team скачать торрент бесплатно




    Свет над Россией (1947) DVDRip от New-Team скачать торрент бесплатно

    Опубликовал: Админ | Дата: 2-07-2015, 05:06 | Просмотров: 131



    Снималось в: СССР
    Создали в: Мосфильм
    Категория жанра: история
    Создали в: 1947
    Время просмотра: 01: 06: 22
    Перевод текста: Не требуется
    Субтитры подготовлены: нет
    Оригинальная аудиодорожка: русский
    Главный режиссер: Сергей Юткевич

    Актеры

    Николай Колесников, Михаил Геловани, В.Марков, Б.Оленин, Николай Охлопков, К.Иванова, Николай Крючков, В.Зускин, С.Ценин, В.Ванин, Б.Толмазов, В.Марьев, Сергей Филиппов, Е.Елина, М.Яроцкая, Лидия Сухаревская, Е.Тяпкина, Ростислав Плятт...
    Описание:
    Истoрикo-рeвoлюционный фильм. Пo мотивам пьесы Н.Ф.Погoдина Кремлёвскиe курaнты. В фильме показаны воспоминания матроса, прошедшего Октябрьскую революцию, охранявшего В.И.Ленина и воевавшего с фашистами в Великую Отечественную. Ключевым моментом фильма является воплощение в жизнь Ленинского плана об электрификации всей страны (ГОЭЛРО), выполненным страной под руководством партии большевиков и председательством В.И.Ленина и И.В.Сталина в 1920-30-е годы. В 1920 году Советскую Россию посетил известный писатель-фантаст Герберт Уэллс. Он встречался с В.И.Лениным, ознакомился с планами широкой электрификации России, и счёл их неосуществимыми, написав очерк Россия во мгле. В.И.Ленин пригласил Уэллса приехать через 10 лет и посмотреть как выполняется план, который был рассчитан на 10-15 лет. Герберт Уэллс приехал в 1934 году и был поражён тем, что план был не просто выполнен, но и перевыполнен по ряду показателей. Этот факт также отражён в фильме Свет над Россией.



    Источник: DVD5 R5
    Качество фильма видео: DVDRip
    Тип видео видео: AVI
    Информация о видео: 704x528 (4: 3), 25 fps, XviD ~ 1430 kbps avg, 0.154 bit/pixel
    Информация о звуке: 48 kHz, MP3 2.0, 128 kbps
    Раздача от:
    MediaInfo

    Общее
    Полное имя : Svet.nad.Rossiey.1947.DVDRip-745_New-team_by_AVP_Studio.avi
    Формат : AVI
    Формат/Информация : Audio Video Interleave
    Размер файла : 744 Мбайт
    Продолжительность : 1 ч. 6 м.
    Общий поток : 1568 Кбит/сек
    Программа кодирования : VirtualDubModRus 1.5.10.2 (build 2542/release)
    Библиотека кодирования : VirtualDubMod build 2542/release
    Видео
    Идентификатор : 0
    Формат : MPEG-4 Visual
    Профиль формата : Advanced Simple@L5
    Параметр BVOP формата : 1
    Параметр QPel формата : Нет
    Параметр GMC формата : Без точки перехода
    Параметр матрицы формата : Выборочная
    Идентификатор кодека : XVID
    Идентификатор кодека/Подсказка : XviD
    Продолжительность : 1 ч. 6 м.
    Битрейт : 1430 Кбит/сек
    Ширина : 704 пикселя
    Высота : 528 пикселей
    Соотношение сторон : 4: 3
    Частота кадров : 25, 000 кадров/сек
    Цветовое пространство : YUV
    Субдискретизация насыщенности : 4: 2: 0
    Битовая глубина : 8 бит
    Тип развёртки : Прогрессивная
    Метод сжатия : С потерями
    Бит/(Пиксели*Кадры) : 0.154
    Размер потока : 679 Мбайт (91%)
    Библиотека кодирования : XviD 73
    Аудио
    Идентификатор : 1
    Формат : MPEG Audio
    Версия формата : Version 1
    Профиль формата : Layer 3
    Идентификатор кодека : 55
    Идентификатор кодека/Подсказка : MP3
    Продолжительность : 1 ч. 6 м.
    Вид битрейта : Постоянный
    Битрейт : 128 Кбит/сек
    Каналы : 2 канала
    Частота : 48, 0 КГц
    Метод сжатия : С потерями
    Размер потока : 60, 8 Мбайт (8%)
    Выравнивание : Соединение по промежуткам
    Продолжительность промежутка : 40 мс. (1, 00 видеокадр)
    Время предзагрузки промежутка : 504 мс.
    Библиотека кодирования : LAME3.99r
    Залил: AVPStudio

    Онлайн видео Свет над Россией (1947) DVDRip от New


    Размер скачиваемого торрента: 744.12 MB (780267520 Bytes)


    Свет над Россией (1947) DVDRip от New-Team
    загрузка...
    Рейтинг →
     (голосов: 1, оценка 4/5, голосовать можно 1 раз )

    Другие торренты по теме:

  • Свет над Россией (1947) DVDRip от New-Team
  • Свет над Россией (1947) DVDRip-AVC от New-Team
  • Свет над Россией / 1946 / РУ / DVDRip (AVC)


    • Комментарии (0):

      Информация

      Информация

        Посетители, находящиеся в группе Гости, не могут оставлять комментарии в данной новости.

        ↓ Меню



        ↓ Опрос

        А Вы добавили сайт в закладки?
        Да
        Не


        Top 10 за месяц (Фильмы)