.
Авторизация | Регистрация
Хочешь лучшие торренты? Добавь свой email!
Добавить
» » В полосе прибоя (1990) SATRip от New-Team скачать торрент бесплатно




    В полосе прибоя (1990) SATRip от New-Team скачать торрент бесплатно

    Опубликовал: Админ | Дата: 1-07-2015, 11:26 | Просмотров: 109



    Снималось в: СССР
    Создали в: Свердловская киностудия
    Категория жанра: боевик
    Создали в: 1990
    Время просмотра: 01: 23: 41
    Перевод текста: Не требуется
    Субтитры подготовлены: нет
    Оригинальная аудиодорожка: русский
    Главный режиссер: Ольгерд Воронцов

    Актеры

    Владимир Кузнецов, Андрей Болтнев, Ирина Цывина, Валерий Баринов, Юрий Астафьев, Татьяна Панкова, Владимир Кабалин, Рим Аюпов, Елена Драпеко, Валентина Березуцкая, Изиль Заблудовский, Валерий Лысенков, Леонид Неведомский, Семен Фурман...
    Описание:
    В провинциальном городе совершено вооруженное нападение на инкассаторов, в перестрелке погибает сотрудник МВД. Из Москвы прибывает следователь, оказавшийся близким другом погибшего. Жестокость совершенного убийства наводит его на мысль о возможной мести. Городские органы не рады этому приезду и стремятся как можно быстрей завершить дело, хотя бы и ценой ошибки. Но задача друга найти истинного убийцу, даже, несмотря на то, что расследование ему приходится вести практически одному.



    Источник: DVB
    Качество фильма видео: SATRip
    Тип видео видео: AVI
    Информация о видео: 704x400 (16: 9), 25 fps, XviD ~ 1660 kbps avg, 0.236 bit/pixel
    Информация о звуке: 48 kHz, Dolby Digital AC3 2.0, 192 kbps
    Раздача от:
    MediaInfo

    Общее
    Полное имя : V.polose.priboya.1990.SATRip_New-team_by_AVP_Studio.avi
    Формат : AVI
    Формат/Информация : Audio Video Interleave
    Размер файла : 1, 09 Гбайт
    Продолжительность : 1 ч. 23 м.
    Общий поток : 1861 Кбит/сек
    Программа кодирования : VirtualDubModRus 1.5.10.2 (build 2542/release)
    Библиотека кодирования : VirtualDubMod build 2542/release
    Видео
    Идентификатор : 0
    Формат : MPEG-4 Visual
    Профиль формата : Advanced Simple@L5
    Параметр BVOP формата : 1
    Параметр QPel формата : Нет
    Параметр GMC формата : Без точки перехода
    Параметр матрицы формата : Выборочная
    Идентификатор кодека : XVID
    Идентификатор кодека/Подсказка : XviD
    Продолжительность : 1 ч. 23 м.
    Битрейт : 1660 Кбит/сек
    Ширина : 704 пикселя
    Высота : 400 пикселей
    Соотношение сторон : 16: 9
    Частота кадров : 25, 000 кадров/сек
    Цветовое пространство : YUV
    Субдискретизация насыщенности : 4: 2: 0
    Битовая глубина : 8 бит
    Тип развёртки : Прогрессивная
    Метод сжатия : С потерями
    Бит/(Пиксели*Кадры) : 0.236
    Размер потока : 995 Мбайт (89%)
    Библиотека кодирования : XviD 73
    Аудио
    Идентификатор : 1
    Формат : AC-3
    Формат/Информация : Audio Coding 3
    Расширение режима : CM (complete main)
    Параметр Endianness формата : Big
    Идентификатор кодека : 2000
    Продолжительность : 1 ч. 23 м.
    Вид битрейта : Постоянный
    Битрейт : 192 Кбит/сек
    Каналы : 2 канала
    Расположение каналов : Front: L R
    Частота : 48, 0 КГц
    Битовая глубина : 16 бит
    Метод сжатия : С потерями
    Размер потока : 115 Мбайт (10%)
    Выравнивание : Разделение по промежуткам
    Продолжительность промежутка : 40 мс. (1, 00 видеокадр)
    Время предзагрузки промежутка : 500 мс

    Скриншоты



    Залил: AVPStudio

    Онлайн видео В полосе прибоя (1990) SATRip от New


    Размер скачиваемого торрента: 1.09 GB (1170212864 Bytes)

    В полосе прибоя (1990) SATRip от New-Team
    загрузка...
    Рейтинг →
     (голосов: 1, оценка 3/5, голосовать можно 1 раз )

    Другие торренты по теме:

  • В полосе прибоя (1990) DVB
  • В полосе прибоя (1990) SATRip
  • В полосе прибоя (1990) SATRip от New-Team
  • В полосе прибоя (1990) SATRip-AVC от New-Team


    • Комментарии (0):

      Информация

      Информация

        Посетители, находящиеся в группе Гости, не могут оставлять комментарии в данной новости.

        ↓ Меню



        ↓ Опрос

        А Вы добавили сайт в закладки?
        Да
        Не


        Top 10 за месяц (Фильмы)