.
Авторизация | Регистрация
Хочешь лучшие торренты? Добавь свой email!
Добавить
» » Ланестер / Lanester (2013) HDTVRip | P скачать торрент бесплатно




    Ланестер / Lanester (2013) HDTVRip | P скачать торрент бесплатно

    Опубликовал: Админ | Дата: 30-06-2015, 05:11 | Просмотров: 104



    Детально о кино
    Русское название: Ланестер
    Русское название в мировом прокате: Lanester
    Создали в: 2013
    Категория жанра: детектив, триллер, экранизация
    Главный режиссёр: Франк Манкузо

    Актеры
    Ришар Берри, Эмма де Кон, Ипполит Жирардо, Брюно Саломон, Ники Марбо, Изабель Канделье
    Описание: В западном Париже совершены три убийства по загадочному сценарию, когда каждая из жертв была подвергнута энуклеации. Ведущий эти дела капитан полиции Эрик Ланестер теряет зрение, тем не менее, продолжает расследование, способное воскресить демонов, которые, как он считал, были давным-давно похоронены…

    Снималось в: Франция
    Время просмотра: 01: 37: 27
    Тип перевода: Профессиональное (многоголосное)
    Файл
    Тип видео: AVI (XviD)
    Качество фильма: HDTVRip
    Информация о видео: 1807 Kb/s, 720x400
    Информация о звуке 1: 48 kHz, AC3 Dolby Digital, 2/0 (L, R) ch, ~192 kbps - русский
    Информация о звуке 2: 48 kHz, AC3 Dolby Digital, 2/0 (L, R) ch, ~192 kbps - французский
    Размер скачиваемого торрента: 1.37 GB
    Скачать: Сэмпл
    Media Info
    Ланестер - Lanester by Edich2.avi
    Format : AVI
    Format/Info : Audio Video Interleave
    File size : 1.37 GiB
    Duration : 1h 37mn
    Overall bit rate : 2 009 Kbps
    Movie name : Ланестер - Lanester by Edich2
    Director : by Edich2
    Video
    ID : 0
    Format : MPEG-4 Visual
    Format profile : Advanced Simple@L5
    Format settings, BVOP : 1
    Format settings, QPel : No
    Format settings, GMC : No warppoints
    Format settings, Matrix : Default (MPEG)
    Codec ID : XVID
    Codec ID/Hint : XviD
    Duration : 1h 37mn
    Bit rate : 1 808 Kbps
    Width : 720 pixels
    Height : 400 pixels
    Display aspect ratio : 16: 9
    Frame rate : 25.000 fps
    Color space : YUV
    Chroma subsampling : 4: 2: 0
    Bit depth : 8 bits
    Scan type : Progressive
    Compression mode : Lossy
    Bits/(Pixel*Frame) : 0.251
    Stream size : 1.23 GiB (90%)
    Writing library : XviD 1.2.1 (UTC 2008-12-04)
    Audio
    ID : 1
    Format : AC-3
    Format/Info : Audio Coding 3
    Mode extension : CM (complete main)
    Format settings, Endianness : Big
    Codec ID : 2000
    Duration : 1h 37mn
    Bit rate mode : Constant
    Bit rate : 192 Kbps
    Channel(s) : 2 channels
    Channel positions : Front: L R
    Sampling rate : 48.0 KHz
    Bit depth : 16 bits
    Compression mode : Lossy
    Stream size : 134 MiB (10%)
    Alignment : Split accross interleaves
    Interleave, duration : 40 ms (1.00 video frame)
    Interleave, preload duration : 500 ms

    Скриншоты


    Залил: ~Relizer~

    Онлайн видео Ланестер


    Размер скачиваемого торрента: 1.37 GB (1468864512 Bytes)

    Ланестер/Lanester (2013) HDTVRip | P
    загрузка...
    Рейтинг →
     (голосов: 1, оценка 4/5, голосовать можно 1 раз )

    Другие торренты по теме:

  • Ланестер / Lanester (2013) HDTV 720p от Brazzass


    • Комментарии (0):

      Информация

      Информация

        Посетители, находящиеся в группе Гости, не могут оставлять комментарии в данной новости.

        ↓ Меню



        ↓ Опрос

        А Вы добавили сайт в закладки?
        Да
        Не


        Top 10 за месяц (Фильмы)