.
Авторизация | Регистрация
Хочешь лучшие торренты? Добавь свой email!
Добавить
» » Почти ангелы / Almost Angels (1962) DVDRip | L1 скачать торрент бесплатно




    Почти ангелы / Almost Angels (1962) DVDRip | L1 скачать торрент бесплатно

    Опубликовал: Админ | Дата: 30-06-2015, 05:09 | Просмотров: 108



    Детально о кино
    Русское название: Почти ангелы
    Русское название в мировом прокате: Almost Angels
    Создали в: 1962
    Категория жанра: музыкальный, семейный, комедия
    Главный режиссер: Стив Превин

    Актеры
    Винсент Винтер, Шон Скалли, Ганс Холт, Бруни Лёбел, Фриц Экхардт, Дэнис Гилмор, Ганс Кристиан, Хенни Скотт, Гюнтер Филипп

    Сюжет фильма

    классическая диснеевская постановка о Венском хоре мальчиков. Отец юного Тони скептически относится к занятиям сына музыкой. Да тут ещё Питер, солист хора, певческая карьера которого из-за возраста вот-вот должна завершиться...

    Снималось в: США
    Время просмотра: 01: 29: 45
    Перевод текста: Любительский (одноголосый, закадровый)
    Файл
    Тип видео: AVI
    Качество фильма: DVDRip
    Информация о видео: 720x544 (1.32: 1), 29.970 fps, XviD MPEG-4 ~1978 kbps avg, 0.17 bit/pixel
    Информация о звуке 1: 48 kHz, AC3 Dolby Digital, 2/0 (L, R) ch, ~192.00 kbps avg(Русский)
    Информация о звуке 2: 48 kHz, AC3 Dolby Digital, 2/0 (L, R) ch, ~192.00 kbps avg(Английский)
    Субтитры: русские, английские
    Семпл
    Media Info
    Общее
    Полное имя : F: С моей озвучкойПочти ангелыAlmost Angels.avi
    Формат : AVI
    Формат/Информация : Audio Video Interleave
    Размер файла : 1, 49 Гбайт
    Продолжительность : 1 ч. 29 м.
    Общий поток : 2380 Кбит/сек
    Программа кодирования : VirtualDubModRus 1.5.10.2 (build 2542/release)
    Библиотека кодирования : VirtualDubMod build 2542/release
    Видео
    Идентификатор : 0
    Формат : MPEG-4 Visual
    Профиль формата : Advanced Simple@L5
    Параметр BVOP формата : 1
    Параметр QPel формата : Нет
    Параметр GMC формата : Без точки перехода
    Параметр матрицы формата : Выборочная
    Идентификатор кодека : XVID
    Идентификатор кодека/Подсказка : XviD
    Продолжительность : 1 ч. 29 м.
    Битрейт : 1979 Кбит/сек
    Ширина : 720 пикселей
    Высота : 544 пикселя
    Соотношение сторон : 4: 3
    Частота кадров : 29, 970 кадров/сек
    Цветовое пространство : YUV
    Субдискретизация насыщенности : 4: 2: 0
    Битовая глубина : 8 бит
    Тип развёртки : Прогрессивная
    Метод сжатия : С потерями
    Бит/(Пиксели*Кадры) : 0.169
    Размер потока : 1, 24 Гбайт (83%)
    Библиотека кодирования : XviD 1.2.1 (UTC 2008-12-04)
    Аудио #1
    Идентификатор : 1
    Формат : AC-3
    Формат/Информация : Audio Coding 3
    Расширение режима : CM (complete main)
    Параметр Endianness формата : Big
    Идентификатор кодека : 2000
    Продолжительность : 1 ч. 29 м.
    Вид битрейта : Постоянный
    Битрейт : 192 Кбит/сек
    Каналы : 2 канала
    Расположение каналов : Front: L R
    Частота : 48, 0 КГц
    Битовая глубина : 16 бит
    Метод сжатия : С потерями
    Размер потока : 123 Мбайт (8%)
    Выравнивание : Разделение по промежуткам
    Продолжительность промежутка : 33 мс. (1, 00 видеокадр)
    Время предзагрузки промежутка : 500 мс.
    Аудио #2
    Идентификатор : 2
    Формат : AC-3
    Формат/Информация : Audio Coding 3
    Расширение режима : CM (complete main)
    Параметр Endianness формата : Big
    Идентификатор кодека : 2000
    Продолжительность : 1 ч. 29 м.
    Вид битрейта : Постоянный
    Битрейт : 192 Кбит/сек
    Каналы : 2 канала
    Расположение каналов : Front: L R
    Частота : 48, 0 КГц
    Битовая глубина : 16 бит
    Метод сжатия : С потерями
    Размер потока : 123 Мбайт (8%)
    Выравнивание : Разделение по промежуткам
    Продолжительность промежутка : 33 мс. (1, 00 видеокадр)
    Время предзагрузки промежутка : 500 мс.

    Скриншоты

    Залил: gigauri

    Онлайн видео Почти ангелы


    Размер скачиваемого торрента: 1.49 GB (1602573591 Bytes)

    Почти ангелы/Almost Angels (1962) DVDRip | L1
    загрузка...
    Рейтинг →
     (голосов: 1, оценка 3/5, голосовать можно 1 раз )

    Другие торренты по теме:

  • Почти стемнело / Near Dark (1987) HDRip
  • Почти розовая история / Takmer ruzovy pribeh (1990) DVDRip от ClubTorrent | L
  • Почти беременна / Almost Pregnant (1992) DVDRip | P2 скачать через торрент бесплатно
  • Почти человек / Almost Human (2013) HDTVRip | Kerob скачать через торрент бесплатно
  • Почти человек / Almost Human (2013) HDTVRip 720p | Sub скачать через торрент бесплатно
  • Почти человек / Almost Human (2013) WEB-DLRip | LostFilm
  • Почти человек / Almost Human (2013) HDTV 720p | Kerob
  • Почти человек / Almost Human (2013) WEB-DL 1080p | BaibaKo


    • Комментарии (0):

      Информация

      Информация

        Посетители, находящиеся в группе Гости, не могут оставлять комментарии в данной новости.

        ↓ Меню



        ↓ Опрос

        А Вы добавили сайт в закладки?
        Да
        Не


        Top 10 за месяц (Фильмы)