.
Авторизация | Регистрация
Хочешь лучшие торренты? Добавь свой email!
Добавить
» » Врача вызывали (2011) DVDRip от NovaLan скачать торрент бесплатно




    Врача вызывали (2011) DVDRip от NovaLan скачать торрент бесплатно

    Опубликовал: Админ | Дата: 30-06-2015, 05:07 | Просмотров: 83



    Снималось в: Россия
    Создали в: Триикс Медиа по заказу телекомпании НТВ
    Категория жанра: Детектив
    Создали в: 2011
    Время просмотра: 01: 29: 54
    Язык: Русский
    Главный режиссер: Артём Антонов

    Актеры
    Анатолий Кот, Мария Мещерякова, Анна Гарнизонова, Иван Корытов, Александр Машанов, Сергей Кузнецов, Дмитрий Сутырин, Евгений Савчук, Валерия Шкирандо, Пётр Гаврилюк, Михаил Морозов, Юлия Зоркина, Анна Табанина, Алексей Кашников
    Описание: В городе происходит серия квартирных краж. Преступники переодеваются в бригаду скорой помощи и передвигаются на автомобиле Скорой. Все нити следствия ведут к врачу бригады скорой помощи одной из частных клиник доктора Иванова. Иванов человек резкий и некоммуникабельный, но причастен ли он к преступлениям?

    Исходник: DVD5 R5
    Тип релиза: DVDRip
    Контейнер: AVI
    Информация о видео: XviD, 1862 Кбит/с, 704x384
    Информация о звуке: АС3, 6 ch, 448 Кбит/с
    MediaInfo
    Общее
    Полное имя : D: 1АААВрача вызывали.avi
    Формат : AVI
    Формат/Информация : Audio Video Interleave
    Размер файла : 1, 46 Гбайт
    Продолжительность : 1 ч. 29 м.
    Общий поток : 2319 Кбит/сек
    Программа кодирования : VirtualDubMod 1.5.10.3 | www.virtualdub-fr.org || (build 2550/release)
    Библиотека кодирования : VirtualDubMod build 2550/release
    Видео
    Идентификатор : 0
    Формат : MPEG-4 Visual
    Профиль формата : Advanced Simple@L5
    Параметр BVOP формата : 2
    Параметр QPel формата : Нет
    Параметр GMC формата : Без точки перехода
    Параметр матрицы формата : Default (MPEG)
    Идентификатор кодека : XVID
    Идентификатор кодека/Подсказка : XviD
    Продолжительность : 1 ч. 29 м.
    Битрейт : 1862 Кбит/сек
    Ширина : 704 пикселя
    Высота : 384 пикселя
    Соотношение сторон : 1, 85: 1
    Частота кадров : 23, 976 кадра/сек
    Цветовое пространство : YUV
    Субдискретизация насыщенности : 4: 2: 0
    Битовая глубина : 8 бит
    Тип развёртки : Прогрессивная
    Метод сжатия : С потерями
    Бит/(Пиксели*Кадры) : 0.287
    Размер потока : 1, 17 Гбайт (80%)
    Библиотека кодирования : XviD 1.2.1 (UTC 2008-12-04)
    Аудио
    Идентификатор : 1
    Формат : AC-3
    Формат/Информация : Audio Coding 3
    Расширение режима : CM (complete main)
    Параметр Endianness формата : Big
    Идентификатор кодека : 2000
    Продолжительность : 1 ч. 29 м.
    Вид битрейта : Постоянный
    Битрейт : 448 Кбит/сек
    Каналы : 6 каналов
    Расположение каналов : Front: L C R, Side: L R, LFE
    Частота : 48, 0 КГц
    Битовая глубина : 16 бит
    Метод сжатия : С потерями
    Размер потока : 288 Мбайт (19%)
    Выравнивание : Разделение по промежуткам
    Продолжительность промежутка : 42 мс. (1, 00 видеокадр)
    Время предзагрузки промежутка : 500 мс.

    Скриншоты


    Релиз группа:
    Автор рипа:
    Залил: YArl

    Онлайн видео Меч дракона


    Размер скачиваемого торрента: 1.46 GB (1563744256 Bytes)

    Врача вызывали (2011) DVDRip от NovaLan
    загрузка...
    Рейтинг →
     (голосов: 1, оценка 3/5, голосовать можно 1 раз )

    Другие торренты по теме:

  • Врача вызывали / 1974 / РУ / SATRip


    • Комментарии (0):

      Информация

      Информация

        Посетители, находящиеся в группе Гости, не могут оставлять комментарии в данной новости.

        ↓ Меню



        ↓ Опрос

        А Вы добавили сайт в закладки?
        Да
        Не


        Top 10 за месяц (Фильмы)