.
Авторизация | Регистрация
Хочешь лучшие торренты? Добавь свой email!
Добавить
» » Новый дом (1947) DVDRip от New-Team скачать торрент бесплатно




    Новый дом (1947) DVDRip от New-Team скачать торрент бесплатно

    Опубликовал: Админ | Дата: 29-06-2015, 11:47 | Просмотров: 162



    Снималось в: СССР
    Создали в: Беларусьфильм
    Категория жанра: комедия
    Создали в: 1947
    Время просмотра: 01: 13: 54
    Перевод текста: Не требуется
    Субтитры подготовлены: нет
    Оригинальная аудиодорожка: русский
    Главный режиссер: Владимир Корш-Саблин

    Актеры

    Виктор Хохряков, Евгений Самойлов, Лидия Смирнова, И.Оя, Леонид Кмит, Константин Сорокин, Николай Черкасов, Николай Боголюбов, Борис Рунге, Владимир Дедюшко, Татьяна Барышева, Елена Сипавина, Людмила Шабалина, Борис Жуковский, В.Цветков...
    Описание:
    Председатель колхоза Мария Степановна, бывшая партизанка, углядев пустующий участок, решает расширить за счет него посевные площади. Этот же участок приглянулся председателю соседнего колхоза — старому партизану Вишняку, который мечтал выстроить на этой земле добротные дома из кирпича. Спор председателей решает вернувшийся в родную деревню гвардии капитан саперных войск Иван Вишняк, которому сразу же приглянулась Мария Степановна и который намерен жить с будущей женой в новом кирпичном доме при хороших урожаях.



    Источник: DVD5 R5
    Качество фильма видео: DVDRip
    Тип видео видео: AVI
    Информация о видео: 688x512 (4: 3), 25 fps, XviD ~ 1903 kbps avg, 0.216 bit/pixel
    Информация о звуке: 48 kHz, Dolby Digital AC3 2.0, 192 kbps
    Раздача от:
    MediaInfo

    Общее
    Полное имя : Novyy.dom.1947.DVDRip_New-team_by_AVP_Studio.avi
    Формат : AVI
    Формат/Информация : Audio Video Interleave
    Размер файла : 1, 09 Гбайт
    Продолжительность : 1 ч. 13 м.
    Общий поток : 2105 Кбит/сек
    Программа кодирования : VirtualDubModRus 1.5.10.2 (build 2542/release)
    Библиотека кодирования : VirtualDubMod build 2542/release
    Видео
    Идентификатор : 0
    Формат : MPEG-4 Visual
    Профиль формата : Advanced Simple@L5
    Параметр BVOP формата : 1
    Параметр QPel формата : Нет
    Параметр GMC формата : Без точки перехода
    Параметр матрицы формата : Выборочная
    Идентификатор кодека : XVID
    Идентификатор кодека/Подсказка : XviD
    Продолжительность : 1 ч. 13 м.
    Битрейт : 1903 Кбит/сек
    Ширина : 688 пикселей
    Высота : 512 пикселей
    Соотношение сторон : 4: 3
    Частота кадров : 25, 000 кадров/сек
    Цветовое пространство : YUV
    Субдискретизация насыщенности : 4: 2: 0
    Битовая глубина : 8 бит
    Тип развёртки : Прогрессивная
    Метод сжатия : С потерями
    Бит/(Пиксели*Кадры) : 0.216
    Размер потока : 1006 Мбайт (90%)
    Библиотека кодирования : XviD 73
    Аудио
    Идентификатор : 1
    Формат : AC-3
    Формат/Информация : Audio Coding 3
    Расширение режима : CM (complete main)
    Параметр Endianness формата : Big
    Идентификатор кодека : 2000
    Продолжительность : 1 ч. 13 м.
    Вид битрейта : Постоянный
    Битрейт : 192 Кбит/сек
    Каналы : 2 канала
    Расположение каналов : Front: L R
    Частота : 48, 0 КГц
    Битовая глубина : 16 бит
    Метод сжатия : С потерями
    Размер потока : 101 Мбайт (9%)
    Выравнивание : Разделение по промежуткам
    Продолжительность промежутка : 40 мс. (1, 00 видеокадр)
    Время предзагрузки промежутка : 500 мс

    Скриншоты



    Залил: AVPStudio

    Онлайн видео Новый дом (1947) DVDRip от New


    Размер скачиваемого торрента: 1.09 GB (1166721024 Bytes)

    Новый дом (1947) DVDRip от New-Team
    загрузка...
    Рейтинг →
     (голосов: 1, оценка 3/5, голосовать можно 1 раз )

    Другие торренты по теме:

  • Человек въезжает в новый дом. Любовь и медицина. Принципиальный человек. Мертвые души
  • Новый дом (1947) DVDRip от New-Team
  • Новый дом (1947) DVDRip-AVC от New-Team
  • Новый дом (44 номера) / Россия / Периодика / 2008-2015 / PDF, DjVu
  • Новый дом / 1947 / РУ / DVD-5
  • Дом-2. Новый год (2012) SATRip
  • Новый старый дом (2013) SATRip скачать через торрент бесплатно
  • Новый год с доставкой на дом (2013) SATRip скачать через торрент бесплатно


    • Комментарии (0):

      Информация

      Информация

        Посетители, находящиеся в группе Гости, не могут оставлять комментарии в данной новости.

        ↓ Меню



        ↓ Опрос

        А Вы добавили сайт в закладки?
        Да
        Не


        Top 10 за месяц (Фильмы)