.
Авторизация | Регистрация
Хочешь лучшие торренты? Добавь свой email!
Добавить
» » Единичка (2015) DVD9 | Лицензия скачать торрент бесплатно




    Единичка (2015) DVD9 | Лицензия скачать торрент бесплатно

    Опубликовал: Админ | Дата: 29-06-2015, 11:47 | Просмотров: 148



    Детально о кино
    Русское название: Единичка
    Создали в: 2015
    Категория жанра: военный, драма
    Главный режиссер: Кирилл Белевич

    Актеры
    Андрей Мерзликин, Илья Коробко, Анна Прус, Арина Борисова, Александр Вершинин, Михаил Евланов, Микаэл Джанибекян, Сергей Габриэлян, Добрыня Белевич-Оболенский, Якуб Здруйковский

    Сюжет фильма

    Август 1944-го. Советские войска продолжают наступление в Восточной Польше. Подразделение старшего лейтенанта Егорова получает задание — удержать мост, через который планируется переправа частей Советской Армии. Прибыв на позицию, бойцы обнаруживают разрушенный монастырь, а в нем — группу глухих сирот с воспитательницей Евой.
    Утратив веру, она нашла смысл жизни в спасении немощных и беззащитных детей. Лейтенант Егоров оказывается перед сложным выбором — выполняя приказ командования, он будет вынужден поставить под угрозу жизнь маленьких поляков. Артиллеристы изо всех сил стараются не допустить смерти детей…

    Снималось в: Россия
    Киностудия: Марс Медиа Энтертейнмент
    Время просмотра: 105 мин./01: 45
    Перевод текста: не требуется
    Файл
    Кодек для видео: MPEG2
    Качество фильма: DVD9 CP Дистрибуция
    Информация о видео: PAL 16: 9 (720x576@1024x576) VBR 6976 Kbps, 25.000 fps
    Информация о звуке: Dolby AC3, 6 ch, 48.0 KHz, 448 Кbps
    Субтитры: отсутствуют
    MediaInfo
    Общее
    Полное имя : E: Ediniсhka.2015.DVD9VIDEO_TSVTS_04_1.VOB
    Формат : MPEG-PS
    Размер файла : 1024 Мбайт
    Продолжительность : 18 м.
    Режим общего битрейта : Переменный
    Общий поток : 7575 Кбит/сек
    Видео
    Идентификатор : 224 (0xE0)
    Формат : MPEG Video
    Версия формата : Version 2
    Профиль формата : Main@Main
    Параметр BVOP формата : Да
    Параметр матрицы формата : По умолчанию
    Параметр GOP формата : M=3, N=12
    Продолжительность : 18 м.
    Вид битрейта : Переменный
    Битрейт : 6976 Кбит/сек
    Максимальный битрейт : 9000 Кбит/сек
    Ширина : 720 пикселей
    Высота : 576 пикселей
    Соотношение сторон : 16: 9
    Частота кадров : 25, 000 кадров/сек
    Стандарт вещания : PAL
    Цветовое пространство : YUV
    Субдискретизация насыщенности : 4: 2: 0
    Битовая глубина : 8 бит
    Тип развёртки : Прогрессивная
    Метод сжатия : С потерями
    Бит/(Пиксели*Кадры) : 0.673
    Временной код первого кадра : 00: 00: 00: 00
    Оригинал временного кода : Group of pictures t_head
    GOP, открыто/закрыто : Открыто
    GOP, открыто/закрыто на первом кадре : Закрыто
    Размер потока : 943 Мбайт (92%)
    Аудио
    Идентификатор : 189 (0xBD)-128 (0x80)
    Формат : AC-3
    Формат/Информация : Audio Coding 3
    Расширение режима : CM (complete main)
    Параметр Endianness формата : Big
    Режим смешивания : DVD-Video
    Продолжительность : 18 м.
    Вид битрейта : Постоянный
    Битрейт : 448 Кбит/сек
    Каналы : 6 каналов
    Расположение каналов : Front: L C R, Side: L R, LFE
    Частота : 48, 0 КГц
    Метод сжатия : С потерями
    Размер потока : 60, 5 Мбайт (6%)
    Меню
    Скриншоты


    Залил: carisha

    Онлайн видео Единичка (2015) DVD9


    Размер скачиваемого торрента: 5.69 GB (6113333248 Bytes)

    Единичка (2015) DVD9 | Лицензия
    загрузка...
    Рейтинг →
     (голосов: 1, оценка 3/5, голосовать можно 1 раз )

    Другие торренты по теме:

  • Единичка (2015) DVDRip
  • Единичка (2015) DVDRip-AVC | Лицензия
  • Единичка (2015) DVDRip | Лицензия
  • Единичка (2015) DVDRip | Лицензия
  • Единичка (2015) DVDRip-AVC от ExKinoRay | Лицензия
  • Единичка (2015) DVDRip от Fox 2015 | КПК | Лицензия
  • Единичка (2015) DVD5 от Generalfilm
  • Единичка (2015) DVDRip от Scarabey | Лицензия


    • Комментарии (0):

      Информация

      Информация

        Посетители, находящиеся в группе Гости, не могут оставлять комментарии в данной новости.

        ↓ Меню



        ↓ Опрос

        А Вы добавили сайт в закладки?
        Да
        Не


        Top 10 за месяц (Фильмы)