.
Авторизация | Регистрация
Хочешь лучшие торренты? Добавь свой email!
Добавить
» » Большая игра / Big Game (2014) WEB-DLRip-AVC от Scarabey | iTunes скачать торрент бесплатно




    Большая игра / Big Game (2014) WEB-DLRip-AVC от Scarabey | iTunes скачать торрент бесплатно

    Опубликовал: Админ | Дата: 29-06-2015, 05:07 | Просмотров: 138



    Создали в: 2014
    Снималось в: Финляндия, Великобритания, Германия
    Категория жанра: боевик, приключения
    Время просмотра: 01: 30: 23
    Перевод текста: Профессиональный (полное дублирование) iTunes
    Субтитры подготовлены: нет
    Главный режиссер: Ялмари Хеландер/Jalmari Helander

    Актеры
    Сэмюэл Л. Джексон, Онни Томмила, Рэй Стивенсон, Виктор Гарбер, Мехмет Куртулус, Тед Левайн, Йорма Томмила, Ристо Сэлми, Фелисити Хаффман, Джим Бродбент

    Описание фильма
    История робкого подростка по имени Оскари. Как и его прадеды, согласно традициям, мальчик должен провести один день и одну ночь в непроходимой глуши. Вооружённый только луком и стрелами, он должен вернуться с добычей, которая ознаменует его становление как мужчины. Кто бы мог подумать, что такой добычей станет президент США! Вот так судьба одного из самых влиятельных людей во всем мире оказывается в руках подростка. Вовлеченные в смертельно опасную, но от этого не менее смешную игру в кошки-мышки, имея всего несколько часов форы — Оскари и Президент США должны сплотиться, чтобы пережить самую необычную ночь в своей жизни.
    Качество фильма видео: WEB-DLRip-AVC
    Тип видео видео: MKV
    Информация о видео: 1024x424, 24 fps, AVC, ~2376 kbps avg, 0.228 bit/pixel
    Информация о звуке: 48 kHz, AC3 Dolby Digital, 3/2 (L, C, R, l, r) + LFE ch, ~384 kbps
    Релиз подготовил:
    АНОНСЫ МОИХ РАЗДАЧ!

    МедиаИнфо

    Большая играBig.game.2014.D.WEB-DL_AVC_scarabey.org.mkv
    Format : Matroska
    Format version : Version 2
    File size : 1.74 GiB
    Duration : 1h 30mn
    Overall bit rate : 2 761 Kbps
    Encoded date : UTC 2015-06-26 22: 08: 09
    Writing application : mkvmerge v6.1.0 (;Old Devil;) built on Mar 4 2013 09: 10: 42
    Writing library : libebml v1.3.0 + libmatroska v1.4.0
    Video
    ID : 1
    Format : AVC
    Format/Info : Advanced Video Codec
    Format profile : High@L4.1
    Format settings, CABAC : Yes
    Format settings, ReFrames : 8 frames
    Codec ID : V_MPEG4/ISO/AVC
    Duration : 1h 30mn
    Bit rate : 2 376 Kbps
    Width : 1 024 pixels
    Height : 424 pixels
    Display aspect ratio : 2.35: 1
    Original display aspect ratio : 2.35: 1
    Frame rate mode : Constant
    Frame rate : 24.000 fps
    Color space : YUV
    Chroma subsampling : 4: 2: 0
    Bit depth : 8 bits
    Scan type : Progressive
    Bits/(Pixel*Frame) : 0.228
    Stream size : 1.47 GiB (84%)
    Writing library : x264 core 138 r2356 a1d3d17
    Encoding settings : cabac=1/ref=8/deblock=1: -3: -2/analyse=0x3: 0x113/me=umh/subme=10/psy=1/psy_rd=1.00: 0.05/mixed_ref=1/me_range=32/chroma_me=1/trellis=2/8x8dct=1/cqm=0/deadzone=21, 11/fast_pskip=0/chroma_qp_offset=-3/threads=12/lookahead_threads=2/sliced_threads=0/nr=0/decimate=0/interlaced=0/bluray_compat=0/constrained_intra=0/bframes=8/b_pyramid=2/b_adapt=2/b_bias=0/direct=3/weightb=1/open_gop=0/weightp=2/keyint=240/keyint_min=24/scenecut=40/intra_refresh=0/rc_lookahead=40/rc=2pass/mbtree=1/bitrate=2376/ratetol=1.0/qcomp=0.60/qpmin=0/qpmax=69/qpstep=4/cplxblur=20.0/qblur=0.5/ip_ratio=1.40/aq=1: 1.00
    Default : Yes
    Forced : No
    Audio
    ID : 2
    Format : AC-3
    Format/Info : Audio Coding 3
    Mode extension : CM (complete main)
    Format settings, Endianness : Big
    Codec ID : A_AC3
    Duration : 1h 30mn
    Bit rate mode : Constant
    Bit rate : 384 Kbps
    Channel(s) : 6 channels
    Channel positions : Front: L C R, Side: L R, LFE
    Sampling rate : 48.0 KHz
    Bit depth : 16 bits
    Compression mode : Lossy
    Stream size : 248 MiB (14%)
    Default : Yes
    Forced : No




    Онлайн видео Большая игра


    Размер скачиваемого торрента: 1.74 GB (1871722364 Bytes)

    Большая игра/Big Game (2014) WEB-DLRip-AVC от Scarabey | iTunes
    загрузка...
    Рейтинг →
     (голосов: 1, оценка 4/5, голосовать можно 1 раз )

    Другие торренты по теме:

  • Большая игра / State of Play (2009) HDRip от Scarabey | D
  • Большая игра / State of Play (2009) BDRip-AVC от Rulya74
  • Большая игра / State of Play (2009) BDRip 720p | D
  • Большая игра / State of Play (2009) BDRip-AVC | iPad | D скачать через торрент бесплатно
  • Большая игра / State of Play (2009) BDRip 720p от NNNB
  • Большая игра (2015) HDRip
  • Большая игра / Big Game (2014) WEBRip | Звук с TS
  • Большая игра / Big Game (2014) WEBRip | Звук с TS


    • Комментарии (0):

      Информация

      Информация

        Посетители, находящиеся в группе Гости, не могут оставлять комментарии в данной новости.

        ↓ Меню



        ↓ Опрос

        А Вы добавили сайт в закладки?
        Да
        Не


        Top 10 за месяц (Фильмы)