.
Авторизация | Регистрация
Хочешь лучшие торренты? Добавь свой email!
Добавить
» » Кибер / Blackhat (2015) DVD9 | Лицензия скачать торрент бесплатно




    Кибер / Blackhat (2015) DVD9 | Лицензия скачать торрент бесплатно

    Опубликовал: Админ | Дата: 28-06-2015, 11:26 | Просмотров: 167



    Детально о кино
    Русское название: Кибер
    Русское название в мировом прокате: Blackhat
    Создали в: 2015
    Категория жанра: боевик, триллер, драма, криминал, детектив
    Главный режиссер: Майкл Манн

    Актеры
    Крис Хемсворт, Ван Лихом, Тан Вэй, Виола Дэвис, Холт МакКэллани, Энди Он, Ричи Костер, Кристиан Борл, Джон Ортис, Йорик ван Вагенинген

    Сюжет фильма

    Спокойная, размеренная жизнь современного мирового пространства. Кажется, что ничто не может нарушить равномерный, плавный ход событий, жизнь настолько механизирована, все рассчитано до мельчайшей детали, казалось бы, что может произойти? Какое событие может выбить из колеи столь идеально отлаженную машину? Однако именно разработки в области новейших технологий представляют главную угрозу человечеству. Лучшие ученые умы из США и Китая объединяют силы в борьбе против самой мощной кибернетической атаки.

    Снималось в: США
    Киностудия: Forward Pass, Legendary Pictures
    Время просмотра: 128 мин./02: 08
    Перевод текста: полное дублирование
    Файл
    Кодек для видео: MPEG2
    Качество фильма: DVD9 Двадцатый Век Фокс СНГ
    Информация о видео: PAL 16: 9 (720x576@1024x576) VBR 5474 Kbps, 25.000 fps
    Информация о звуке 1: Dolby AC3, 6 ch, 48.0 KHz, 384 Кbps (русский)
    Информация о звуке 2: Dolby AC3, 6 ch, 48.0 KHz, 384 Кbps (английский)
    Информация о звуке 3: Dolby AC3, 6 ch, 48.0 KHz, 384 Кbps (польский)
    Информация о звуке 4: Dolby AC3, 6 ch, 48.0 KHz, 384 Кbps (венгерский)
    Информация о звуке 5: Dolby AC3, 6 ch, 48.0 KHz, 384 Kbps (чешский)
    Субтитры: русские, английские, чешские, венгерские, болгарские, хорватские,
    эстонские, греческие, иврит, латышские, литовские, польские, румынские, словенские
    MediaInfo
    Общее
    Полное имя : D: Кибер2015VIDEO_TSVTS_05_1.VOB
    Формат : MPEG-PS
    Размер файла : 1024 Мбайт
    Продолжительность : 18 м.
    Режим общего битрейта : Переменный
    Общий поток : 7545 Кбит/сек
    Видео
    Идентификатор : 224 (0xE0)
    Формат : MPEG Video
    Версия формата : Version 2
    Профиль формата : Main@Main
    Параметр BVOP формата : Да
    Параметр матрицы формата : Выборочная
    Параметр GOP формата : Variable
    Продолжительность : 18 м.
    Вид битрейта : Переменный
    Битрейт : 5474 Кбит/сек
    Ширина : 720 пикселей
    Высота : 576 пикселей
    Соотношение сторон : 16: 9
    Частота кадров : 25, 000 кадров/сек
    Стандарт вещания : PAL
    Цветовое пространство : YUV
    Субдискретизация насыщенности : 4: 2: 0
    Битовая глубина : 8 бит
    Метод сжатия : С потерями
    Бит/(Пиксели*Кадры) : 0.528
    Временной код первого кадра : 00: 00: 00: 00
    Оригинал временного кода : Group of pictures t_head
    Размер потока : 743 Мбайт (73%)
    Аудио #1
    Идентификатор : 189 (0xBD)-128 (0x80)
    Формат : AC-3
    Формат/Информация : Audio Coding 3
    Расширение режима : CM (complete main)
    Параметр Endianness формата : Big
    Режим смешивания : DVD-Video
    Продолжительность : 18 м.
    Вид битрейта : Постоянный
    Битрейт : 384 Кбит/сек
    Каналы : 6 каналов
    Расположение каналов : Front: L C R, Side: L R, LFE
    Частота : 48, 0 КГц
    Метод сжатия : С потерями
    Задержка видео : -50 мс.
    Размер потока : 52, 1 Мбайт (5%)
    Аудио #2
    Идентификатор : 189 (0xBD)-129 (0x81)
    Формат : AC-3
    Формат/Информация : Audio Coding 3
    Расширение режима : CM (complete main)
    Параметр Endianness формата : Big
    Режим смешивания : DVD-Video
    Продолжительность : 18 м.
    Вид битрейта : Постоянный
    Битрейт : 384 Кбит/сек
    Каналы : 6 каналов
    Расположение каналов : Front: L C R, Side: L R, LFE
    Частота : 48, 0 КГц
    Метод сжатия : С потерями
    Задержка видео : -50 мс.
    Размер потока : 52, 1 Мбайт (5%)
    Аудио #3
    Идентификатор : 189 (0xBD)-130 (0x82)
    Формат : AC-3
    Формат/Информация : Audio Coding 3
    Расширение режима : CM (complete main)
    Параметр Endianness формата : Big
    Режим смешивания : DVD-Video
    Продолжительность : 18 м.
    Вид битрейта : Постоянный
    Битрейт : 384 Кбит/сек
    Каналы : 6 каналов
    Расположение каналов : Front: L C R, Side: L R, LFE
    Частота : 48, 0 КГц
    Метод сжатия : С потерями
    Задержка видео : -50 мс.
    Размер потока : 52, 1 Мбайт (5%)
    Аудио #4
    Идентификатор : 189 (0xBD)-131 (0x83)
    Формат : AC-3
    Формат/Информация : Audio Coding 3
    Расширение режима : CM (complete main)
    Параметр Endianness формата : Big
    Режим смешивания : DVD-Video
    Продолжительность : 18 м.
    Вид битрейта : Постоянный
    Битрейт : 384 Кбит/сек
    Каналы : 6 каналов
    Расположение каналов : Front: L C R, Side: L R, LFE
    Частота : 48, 0 КГц
    Метод сжатия : С потерями
    Задержка видео : -50 мс.
    Размер потока : 52, 1 Мбайт (5%)
    Аудио #5
    Идентификатор : 189 (0xBD)-132 (0x84)
    Формат : AC-3
    Формат/Информация : Audio Coding 3
    Расширение режима : CM (complete main)
    Параметр Endianness формата : Big
    Режим смешивания : DVD-Video
    Продолжительность : 18 м.
    Вид битрейта : Постоянный
    Битрейт : 384 Кбит/сек
    Каналы : 6 каналов
    Расположение каналов : Front: L C R, Side: L R, LFE
    Частота : 48, 0 КГц
    Метод сжатия : С потерями
    Задержка видео : -50 мс.
    Размер потока : 52, 1 Мбайт (5%)
    Текст #1
    Идентификатор : 189 (0xBD)-32 (0x20)
    Формат : RLE
    Формат/Информация : Run-length encoding
    Режим смешивания : DVD-Video
    Текст #2
    Идентификатор : 189 (0xBD)-33 (0x21)
    Формат : RLE
    Формат/Информация : Run-length encoding
    Режим смешивания : DVD-Video
    Текст #3
    Идентификатор : 189 (0xBD)-34 (0x22)
    Формат : RLE
    Формат/Информация : Run-length encoding
    Режим смешивания : DVD-Video
    Текст #4
    Идентификатор : 189 (0xBD)-35 (0x23)
    Формат : RLE
    Формат/Информация : Run-length encoding
    Режим смешивания : DVD-Video
    Текст #5
    Идентификатор : 189 (0xBD)-36 (0x24)
    Формат : RLE
    Формат/Информация : Run-length encoding
    Режим смешивания : DVD-Video
    Текст #6
    Идентификатор : 189 (0xBD)-37 (0x25)
    Формат : RLE
    Формат/Информация : Run-length encoding
    Режим смешивания : DVD-Video
    Текст #7
    Идентификатор : 189 (0xBD)-38 (0x26)
    Формат : RLE
    Формат/Информация : Run-length encoding
    Режим смешивания : DVD-Video
    Текст #8
    Идентификатор : 189 (0xBD)-39 (0x27)
    Формат : RLE
    Формат/Информация : Run-length encoding
    Режим смешивания : DVD-Video
    Текст #9
    Идентификатор : 189 (0xBD)-40 (0x28)
    Формат : RLE
    Формат/Информация : Run-length encoding
    Режим смешивания : DVD-Video
    Текст #10
    Идентификатор : 189 (0xBD)-41 (0x29)
    Формат : RLE
    Формат/Информация : Run-length encoding
    Режим смешивания : DVD-Video
    Текст #11
    Идентификатор : 189 (0xBD)-42 (0x2A)
    Формат : RLE
    Формат/Информация : Run-length encoding
    Режим смешивания : DVD-Video
    Текст #12
    Идентификатор : 189 (0xBD)-43 (0x2B)
    Формат : RLE
    Формат/Информация : Run-length encoding
    Режим смешивания : DVD-Video
    Текст #13
    Идентификатор : 189 (0xBD)-44 (0x2C)
    Формат : RLE
    Формат/Информация : Run-length encoding
    Режим смешивания : DVD-Video
    Текст #14
    Идентификатор : 189 (0xBD)-45 (0x2D)
    Формат : RLE
    Формат/Информация : Run-length encoding
    Режим смешивания : DVD-Video
    Текст #15
    Идентификатор : 189 (0xBD)-46 (0x2E)
    Формат : RLE
    Формат/Информация : Run-length encoding
    Режим смешивания : DVD-Video
    Меню
    Скриншоты


    Залил: carisha
    Размер скачиваемого торрента: 6.83 GB (7329820672 Bytes)

    Кибер/Blackhat (2015) DVD9 | Лицензия
    загрузка...
    Рейтинг →
     (голосов: 1, оценка 3/5, голосовать можно 1 раз )

    Другие торренты по теме:

  • Кибер-террор / Cyberbully (2011) DVDRip | Elrom
  • Кибер-команда Акихабары / Cyberteam in Akihabara TV (1998) DVDRip | Рersona99 скачать через торрент бесплатно
  • Кибер-команда Акихабары - Фильм / Cyberteam in Akihabara - 2011 Summer Vacations (1999) DVDRip AVC | Persona99 скачать через торрент бесплатно
  • Хакер / Кибер (2015) HDRip
  • Кибер / Blackhat (2015) CAMRip скачать через торрент бесплатно
  • Кибер / Blackhat (2015) WEB-DLRip | iTunes
  • Кибер / Blackhat (2015) WEB-DLRip-AVC | iTunes
  • Кибер / Blackhat (2015) WEB-DLRip от Scarabey | iTunes


    • Комментарии (0):

      Информация

      Информация

        Посетители, находящиеся в группе Гости, не могут оставлять комментарии в данной новости.

        ↓ Меню



        ↓ Опрос

        А Вы добавили сайт в закладки?
        Да
        Не


        Top 10 за месяц (Фильмы)