.
Авторизация | Регистрация
Хочешь лучшие торренты? Добавь свой email!
Добавить
» » Следопыт / Pathfinder (2007) HDRip | A | Directors Cut скачать торрент бесплатно




    Следопыт / Pathfinder (2007) HDRip | A | Directors Cut скачать торрент бесплатно

    Опубликовал: Админ | Дата: 27-06-2015, 05:09 | Просмотров: 104



    Создали в: США
    Категория жанра: Приключения, Боевик
    Время просмотра: 01: 47: 11
    Перевод текста: Одноголосый закадровый, авторский
    Автор перевода: Ю.Живов
    Субтитры: Отсутствуют
    Главный режиссер: Маркус Ниспел
    Актеры: Карл Урбан, Мун Бладгуд, Рассел Минс, Клэнси Браун, Джей Таваре, Натаниель Арканд, Ральф Мёллер, Кевин Лоринг, Вейн Чарльз Бэйкер, Мишель Траш

    Описание фильма

    Северная Америка. 600 лет до прибытия Колумба. Викинги вторгаются на земли коренных жителей этих мест — индейцев. После столкновения двух племен, мальчик викингов остается один и попадает в лагерь врага.
    Его принимают в племя и воспитывают. Через 15 лет юный герой вновь встречается со своим некогда родным народом, но последствия этой встречи оказываются трагичными для приютившего его племени и герой принимает решение поставить точку в кровопролитной войне.

    Качество фильма: HDRip
    Информация о видео: MPEG4, XviD, 720x304 (2.35: 1), 23.976 fps, 1 489 Kbps (0.284 bit/pixel)
    Информация о звуке: AC-3, 48.0 KHz, 6 ch, 448 Kbps, CBR
    Релиз подготовил: FAGOT100
    Mediainfo:

    Формат : AVI
    Формат/Информация : Audio Video Interleave
    Размер файла : 1, 46 Гбайт
    Продолжительность : 1 ч. 47 м.
    Общий поток : 1946 Кбит/сек
    Программа кодирования : VirtualDubMod 1.5.10.3 | www.virtualdub-fr.org || (build 2550/release)
    Библиотека кодирования : VirtualDubMod build 2550/release
    Видео
    Идентификатор : 0
    Формат : MPEG-4 Visual
    Профиль формата : Advanced Simple@L5
    Параметр BVOP формата : 2
    Параметр QPel формата : Нет
    Параметр GMC формата : Без точки перехода
    Параметр матрицы формата : Выборочная
    Идентификатор кодека : XVID
    Идентификатор кодека/Подсказка : XviD
    Продолжительность : 1 ч. 47 м.
    Битрейт : 1489 Кбит/сек
    Ширина : 720 пикселей
    Высота : 304 пикселя
    Соотношение сторон : 2, 35: 1
    Частота кадров : 23, 976 кадра/сек
    Цветовое пространство : YUV
    Субдискретизация насыщенности : 4: 2: 0
    Битовая глубина : 8 бит
    Тип развёртки : Прогрессивная
    Метод сжатия : С потерями
    Бит/(Пиксели*Кадры) : 0.284
    Размер потока : 1, 11 Гбайт (77%)
    Библиотека кодирования : XviD 73
    Аудио
    Идентификатор : 1
    Формат : AC-3
    Формат/Информация : Audio Coding 3
    Расширение режима : CM (complete main)
    Параметр Endianness формата : Big
    Идентификатор кодека : 2000
    Продолжительность : 1 ч. 47 м.
    Вид битрейта : Постоянный
    Битрейт : 448 Кбит/сек
    Каналы : 6 каналов
    Расположение каналов : Front: L C R, Side: L R, LFE
    Частота : 48, 0 КГц
    Битовая глубина : 16 бит
    Метод сжатия : С потерями
    Размер потока : 343 Мбайт (23%)
    Выравнивание : Разделение по промежуткам
    Продолжительность промежутка : 42 мс. (1, 00 видеокадр)
    Время предзагрузки промежутка : 500 мс.
    Скриншоты



    Онлайн видео Следопыт


    Размер скачиваемого торрента: 1.46 GB (1564686336 Bytes)

    Следопыт/Pathfinder (2007) HDRip | A | Directors Cut
    загрузка...
    Рейтинг →
     (голосов: 1, оценка 5/5, голосовать можно 1 раз )

    Другие торренты по теме:

  • Джеймс Фенимор Купер - Следопыт или На берегах Онтарио (2013) MP3
  • Следопыт / Pathfinder (2007) BDRip | Расширенная версия | D, P2
  • Даша Следопыт / Даша Путешественница / Dora the Explorer (2012-2013) SATRip | D
  • Даша Следопыт / Даша Путешественница / Dora the Explorer (2000-2012) SATRip
  • Следопыт / Pathfinder (2007) BDRip 1080p | Unrated | 60 fps | D, P, P2, A скачать через торрент бесплатно
  • Следопыт / Pathfinder (1996) DVDRip от NovaLan скачать через торрент бесплатно
  • Следопыт / Pathfinder (2007) BDRip 720p от Leonardo and Scarabey
  • Следопыт / Pathfinder (2007) BDRip-AVC от MediaClub | D, P, P2, A | Режиссерская версия / Directors Cut


    • Комментарии (0):

      Информация

      Информация

        Посетители, находящиеся в группе Гости, не могут оставлять комментарии в данной новости.

        ↓ Меню



        ↓ Опрос

        А Вы добавили сайт в закладки?
        Да
        Не


        Top 10 за месяц (Фильмы)