.
Авторизация | Регистрация
Хочешь лучшие торренты? Добавь свой email!
Добавить
» » Мафия (2015) WEBRip 1080p | Трейлер скачать торрент бесплатно




    Мафия (2015) WEBRip 1080p | Трейлер скачать торрент бесплатно

    Опубликовал: Админ | Дата: 27-06-2015, 05:02 | Просмотров: 146



    Создали в: 2016
    Создали в: Россия
    Категория жанра: фантастика, боевик
    Главный режиссер: Сарик Андреасян
    Продюсеры: Сарик Андреасян, Гевонд Андреасян, Владимир Поляков
    Актеры: Виктор Вержбицкий, Вениамин Смехов, Юрий Чурсин, Вячеслав Разбегаев, Ольга Тумайкина, Андрей Чадов, Вадим Цаллати, Виолетта Гетманская, Наталья Рудова, Евгений Коряковский
    Описание фильма:
    Москва. Далекое будущее. Карточная игра МАФИЯ стала самым популярным в мире телешоу. Одиннадцать человек соберутся за столом, чтобы выяснить — кто из них Мирный Житель, а кто безжалостная МАФИЯ. На глазах всего мира готовится коктейль из эмоций и чувств: хитрости, страха, лжи, ненависти, презрения, боли, гордости, страсти, любви и смерти. Ведь выигравший в схватке получит огромный денежный приз, а проигравший просто умрет…
    Дата мировой премьеры: -
    Дата российской премьеры: 1 января 2016

    Время просмотра: 00: 02: 21
    Качество фильма видео: WEBRip 1080p
    Информация о видеокодек: MPEG-4 AVC/H.264
    Битрейт видео: 8021 Кбит/сек
    Размер скачиваемого торрента кадра: 1920x804
    Информация о звукекодек: AAC
    Битрейт аудио: 128 Кбит/сек
    MediaInfo:

    Общее
    Полное имя : Mafiya.mp4
    Формат : MPEG-4
    Профиль формата : Base Media
    Идентификатор кодека : isom
    Размер файла : 137 Мбайт
    Продолжительность : 2 м. 21 с.
    Режим общего битрейта : Переменный
    Общий поток : 8153 Кбит/сек
    Дата кодирования : UTC 2015-06-26 08: 59: 31
    Дата пометки : UTC 2015-06-26 08: 59: 31
    Программа кодирования : Lavf51.12.1
    Видео
    Идентификатор : 1
    Формат : AVC
    Формат/Информация : Advanced Video Codec
    Профиль формата : Baseline@L4
    Параметр CABAC формата : Нет
    Параметр ReFrames формата : 1 кадр
    Параметр GOP формата : M=1, N=12
    Идентификатор кодека : avc1
    Идентификатор кодека/Информация : Advanced Video Coding
    Продолжительность : 2 м. 21 с.
    Битрейт : 8021 Кбит/сек
    Ширина : 1920 пикселей
    Высота : 804 пикселя
    Соотношение сторон : 2, 40: 1
    Режим частоты кадров : Постоянный
    Частота кадров : 24, 000 кадра/сек
    Цветовое пространство : YUV
    Субдискретизация насыщенности : 4: 2: 0
    Битовая глубина : 8 бит
    Тип развёртки : Прогрессивная
    Бит/(Пиксели*Кадры) : 0.216
    Размер потока : 135 Мбайт (98%)
    Дата кодирования : UTC 2015-06-26 08: 59: 31
    Дата пометки : UTC 2015-06-26 08: 59: 31
    Аудио
    Идентификатор : 2
    Формат : AAC
    Формат/Информация : Advanced Audio Codec
    Профиль формата : LC
    Идентификатор кодека : 40
    Продолжительность : 2 м. 21 с.
    Вид битрейта : Переменный
    Битрейт : 128 Кбит/сек
    Каналы : 2 канала
    Расположение каналов : Front: L R
    Частота : 48, 0 КГц
    Метод сжатия : С потерями
    Размер потока : 2, 15 Мбайт (2%)
    Дата кодирования : UTC 2015-06-26 08: 59: 31
    Дата пометки : UTC 2015-06-26 08: 59: 31

    Скриншоты



    Скриншоты



    Залил: Jokerzv

    Онлайн видео Мафия (2015) WEBRip 1080p


    Размер скачиваемого торрента: 137.49 MB (144165293 Bytes)

    Мафия (2015) WEBRip 1080p | Трейлер
    загрузка...
    Рейтинг →
     (голосов: 1, оценка 3/5, голосовать можно 1 раз )

    Другие торренты по теме:

  • Кашемировая мафия / Cashmere Mafia (2008) DVDRip | D
  • Я и Мафия / Me and the Mob (1992) DVDRip от Brazzass
  • Мафия / Mafia / Mafia war (2011) HDRip | L1
  • Мафия - Дискография (1988-2012) MP3
  • эР.ЧУЛЬ - Мир Мама Мафия (2013) MP3 от Kulemina - Generalfilm
  • Мафия в белых халатах / Bisturi, la mafia bianca (1973) DVDRip-AVC от -=HD-NET=-
  • Мафия / Mafia - Антология (2002-2010) PC | Steam-Rip от R.G. Игроманы
  • Мафия / Mafia: The City of Lost Heaven - Russian Cars (2002-2014) PC скачать через торрент бесплатно


    • Комментарии (0):

      Информация

      Информация

        Посетители, находящиеся в группе Гости, не могут оставлять комментарии в данной новости.

        ↓ Меню



        ↓ Опрос

        А Вы добавили сайт в закладки?
        Да
        Не


        Top 10 за месяц (Фильмы)