.
Авторизация | Регистрация
Хочешь лучшие торренты? Добавь свой email!
Добавить
» » Ночной беглец / Run All Night (2015) BDRip 1080p | A скачать торрент бесплатно




    Ночной беглец / Run All Night (2015) BDRip 1080p | A скачать торрент бесплатно

    Опубликовал: Админ | Дата: 26-06-2015, 05:07 | Просмотров: 135




    Детально о кино
    Русское название: Ночной беглец
    Русское название в мировом прокате: Run All Night
    Создали в: 2015
    Категория жанра: боевик, триллер, драма, криминал, детектив
    Главный режиссер: Хауме Кольет-Серра

    Актеры
    Лиам Нисон, Юэль Киннаман, Дженезис Родригез, Бойд Холбрук, Винсент Д’Онофрио, Коммон, Эд Харрис, Холт МакКэллани, Брюс МакГилл, Бо Напп


    Сюжет фильма
    Фильм расскажет историю киллера, вступившего в конфликт с бывшим боссом и в итоге вынужденного пуститься в бега, чтобы защитить свою семью от преследования мафией и властями.



    Снималось в: США/Energy Entertainment, RatPac-Dune Entertainment, Vertigo Entertainment
    Время просмотра: 01: 54: 21
    Перевод текста: Авторский (одноголосый, закадровый)- Д. Есарев

    Файл
    Качество фильма: BDRip 1080p
    Тип видео: MKV
    Информация о видео: MPEG4/AVC, 16.5 Мбит/сек, 1920х800 (2.40: 1), 23.976 кадра/сек
    Информация о звуке 1: AC3, 6 каналов, 448 Кбит/сек | Русский - Д. Есарев
    Информация о звуке 2: DTS, 6 каналов, 1509 Кбит/сек | Русский - Д. Есарев
    Информация о звуке 3: DTS, 6 каналов, 1509 Кбит/сек | Английский
    Субтитры: Английские (Full, SDH)
    Навигация по главам: Есть

    MediaInfo:
    Общее
    Уникальный идентификатор : 218506712820341397264374547218002547778 (0xA462DCB45B6E809B82CC62594AE71442)
    Полное имя : Run All Night. (2015) BDRip 1080p.mkv
    Формат : Matroska
    Версия формата : Version 2
    Размер файла : 15, 9 Гбайт
    Продолжительность : 1 ч. 54 м.
    Общий поток : 20, 0 Мбит/сек
    Название фильма : Run All Night. 2015
    Дата кодирования : UTC 2015-06-25 07: 27: 30
    Программа кодирования : mkvmerge v5.8.0 (;No Sleep/Pillow;) built on Sep 2 2012 15: 37: 04
    Библиотека кодирования : libebml v1.2.3 + libmatroska v1.3.0

    Видео
    Идентификатор : 1
    Формат : AVC
    Формат/Информация : Advanced Video Codec
    Профиль формата : High@L4.1
    Параметр CABAC формата : Да
    Параметр ReFrames формата : 5 кадров
    Идентификатор кодека : V_MPEG4/ISO/AVC
    Продолжительность : 1 ч. 54 м.
    Битрейт : 16, 5 Мбит/сек
    Ширина : 1920 пикселей
    Высота : 800 пикселей
    Соотношение сторон : 2, 40: 1
    Режим частоты кадров : Постоянный
    Частота кадров : 23, 976 кадра/сек
    Цветовое пространство : YUV
    Субдискретизация насыщенности : 4: 2: 0
    Битовая глубина : 8 бит
    Тип развёртки : Прогрессивная
    Бит/(Пиксели*Кадры) : 0.448
    Размер потока : 12, 9 Гбайт (81%)
    Заголовок : WiKi
    Библиотека кодирования : x264 core 142 r2431+42 c69a006 tMod 8-bit@all X86_64
    Настройки программы : cabac=1/ref=5/deblock=1: -3: -3/analyse=0x3: 0x133/me=umh/subme=11/psy=1/fade_compensate=0.00/psy_rd=1.05: 0.15/mixed_ref=1/me_range=64/chroma_me=1/trellis=2/8x8dct=1/cqm=0/deadzone=21, 11/fast_pskip=0/chroma_qp_offset=-3/threads=12/lookahead_threads=3/sliced_threads=0/nr=0/decimate=0/interlaced=0/bluray_compat=0/constrained_intra=0/fgo=0/bframes=10/b_pyramid=2/b_adapt=2/b_bias=0/direct=3/weightb=1/open_gop=0/weightp=2/keyint=250/keyint_min=23/scenecut=40/intra_refresh=0/rc_lookahead=150/rc=2pass/mbtree=0/bitrate=16500/ratetol=1.0/qcomp=0.80/qpmin=0: 0: 0/qpmax=69: 69: 69/qpstep=4/cplxblur=20.0/qblur=0.5/vbv_maxrate=50000/vbv_bufsize=50000/nal_hrd=none/filler=0/ip_ratio=1.40/pb_ratio=1.30/aq=1: 0.85/aq-sensitivity=10.00/aq-factor=1.00: 1.00: 1.00/aq2=0/aq3=0
    Язык : English
    Default : Да
    Forced : Нет
    Коэффициенты матрицы : BT.709

    Аудио #1
    Идентификатор : 2
    Формат : AC-3
    Формат/Информация : Audio Coding 3
    Расширение режима : CM (complete main)
    Параметр Endianness формата : Big
    Идентификатор кодека : A_AC3
    Продолжительность : 1 ч. 54 м.
    Вид битрейта : Постоянный
    Битрейт : 448 Кбит/сек
    Каналы : 6 каналов
    Расположение каналов : Front: L C R, Side: L R, LFE
    Частота : 48, 0 КГц
    Битовая глубина : 16 бит
    Метод сжатия : С потерями
    Размер потока : 366 Мбайт (2%)
    Заголовок : A | AC3 | Д. Есарев
    Язык : Russian
    Default : Да
    Forced : Нет

    Аудио #2
    Идентификатор : 3
    Формат : DTS
    Формат/Информация : Digital Theater Systems
    Режим : 16
    Параметр Endianness формата : Big
    Идентификатор кодека : A_DTS
    Продолжительность : 1 ч. 54 м.
    Вид битрейта : Постоянный
    Битрейт : 1509 Кбит/сек
    Каналы : 6 каналов
    Расположение каналов : Front: L C R, Side: L R, LFE
    Частота : 48, 0 КГц
    Битовая глубина : 24 бит
    Метод сжатия : С потерями
    Размер потока : 1, 21 Гбайт (8%)
    Заголовок : A | DTS | Д. Есарев
    Язык : Russian
    Default : Нет
    Forced : Нет

    Аудио #3
    Идентификатор : 4
    Формат : DTS
    Формат/Информация : Digital Theater Systems
    Режим : 16
    Параметр Endianness формата : Big
    Идентификатор кодека : A_DTS
    Продолжительность : 1 ч. 54 м.
    Вид битрейта : Постоянный
    Битрейт : 1509 Кбит/сек
    Каналы : 6 каналов
    Расположение каналов : Front: L C R, Side: L R, LFE
    Частота : 48, 0 КГц
    Битовая глубина : 24 бит
    Метод сжатия : С потерями
    Размер потока : 1, 21 Гбайт (8%)
    Заголовок : Original
    Язык : English
    Default : Нет
    Forced : Нет

    Текст #1
    Идентификатор : 5
    Формат : UTF-8
    Идентификатор кодека : S_TEXT/UTF8
    Идентификатор кодека/Информация : UTF-8 Plain Text
    Заголовок : Full
    Язык : English
    Default : Нет
    Forced : Нет

    Текст #2
    Идентификатор : 6
    Формат : UTF-8
    Идентификатор кодека : S_TEXT/UTF8
    Идентификатор кодека/Информация : UTF-8 Plain Text
    Заголовок : SDH
    Язык : English
    Default : Нет
    Forced : Нет

    Меню
    00: 00: 00.000 : en: 00: 00: 00.000
    00: 09: 02.792 : en: 00: 09: 02.792
    00: 20: 32.273 : en: 00: 20: 32.273
    00: 29: 24.346 : en: 00: 29: 24.346
    00: 41: 17.558 : en: 00: 41: 17.558
    00: 50: 29.818 : en: 00: 50: 29.818
    01: 01: 35.942 : en: 01: 01: 35.942
    01: 10: 56.794 : en: 01: 10: 56.794
    01: 19: 52.121 : en: 01: 19: 52.121
    01: 34: 14.440 : en: 01: 34: 14.440
    01: 39: 08.776 : en: 01: 39: 08.776
    01: 48: 38.387 : en: 01: 48: 38.387



    Релиз подготовил: |

    Онлайн видео Ночной беглец


    Размер скачиваемого торрента: 15.94 GB (17120122201 Bytes)

    Ночной беглец/Run All Night (2015) BDRip 1080p | A
    загрузка...
    Рейтинг →
     (голосов: 1, оценка 3/5, голосовать можно 1 раз )

    Другие торренты по теме:

  • Ночной беглец / Run All Night (2015) CAMRip | D
  • Ночной беглец / Run All Night (2015) WEBRip | Звук с TS
  • Ночной беглец / Run All Night (2015) WEBRip 1080p от СЕНЯ009 | D | Чистый звук
  • Ночной беглец / Run All Night (2015) WEB-DLRip | Чистый звук
  • Ночной беглец / Run All Night (2015) WEB-DL 720p | Чистый звук
  • Ночной беглец / Run All Night (2015) WEB-DL 1080p | Чистый звук
  • Ночной беглец / Run All Night (2015) WEB-DLRip | Чистый звук
  • Ночной беглец / Run All Night (2015) BDRip 720p | Чистый звук


    • Комментарии (0):

      Информация

      Информация

        Посетители, находящиеся в группе Гости, не могут оставлять комментарии в данной новости.

        ↓ Меню



        ↓ Опрос

        А Вы добавили сайт в закладки?
        Да
        Не


        Top 10 за месяц (Фильмы)