.
Авторизация | Регистрация
Хочешь лучшие торренты? Добавь свой email!
Добавить
» » Смерч / Twister (1996) BDRip 720p от KinoGadget | iPad скачать торрент бесплатно




    Смерч / Twister (1996) BDRip 720p от KinoGadget | iPad скачать торрент бесплатно

    Опубликовал: Админ | Дата: 25-06-2015, 05:13 | Просмотров: 130



    Создали в: 1996
    Снималось в: США
    Категория жанра: боевик, триллер, драма, приключения
    Время просмотра: 01: 53: 02
    Перевод текста: Дублированный
    Главный режиссер: Ян де Бонт

    Актеры
    Билл Пэкстон, Хелен Хант, Джейми Герц, Кэри Элвис, Джейк Бьюзи, Дилан Макдермотт, Николас Сэдлер, Луис Смит, Абрахам Бенруби, Алан Рак, Шон Уолен, Филип Сеймур Хоффман, Джереми Дэвис, Тодд Филд, Зак Гренье, Скотт Томсон, Джоуи Злотник, Уэндл Джозефер, Грегори Спорледер, Бен Уэбер, Энтони Рэпп, Эрик Ларэй Харви, Патрик Фишлер, Мелани Хупс, Дж. Дин Линдсей
    Описание: Рушащиеся, словно карточные домики, здания, разорванные линии электропередач, поднятые в воздух автомобили и животные, гибнущие люди… Мелкими и незначительными оказываются личные неурядицы героев перед лицом разбушевавшейся стихии.
    В отчаянный поединок с грозным и малоизученным явлением природы вступают ученые-метеорологи.

    Информация о видео кодек: MPEG-4 AVC
    Качество фильма: BDRip 720p
    Параметры Видео: 1280x528, 23.976 fps; ~1 980 kbps avg
    Параметры Звука: 44.1 KHz, AAC, ~150.00 kbps avg, 2ch
    Тип видео: mp4
    Автор рипа:
    Релиз-группа:

    Meta Tags


    MI
    General
    Complete name : E: Smerch.1996.D.BDRip.720p_KinoGadget.mp4
    Format : MPEG-4
    Format profile : Base Media
    Codec ID : isom
    File size : 1.69 GiB
    Duration : 1h 53mn
    Overall bit rate mode : Variable
    Overall bit rate : 2 137 Kbps
    Movie name : Смерч
    Performer : Ян де Бонт
    Genre : Action, Adventure, Drama
    ContentType : Short Film
    Recorded date : 1996
    Encoded date : UTC 2015-06-24 16: 29: 35
    Tagged date : UTC 2015-06-24 17: 28: 56
    Cover : Yes
    ContentRating : mpaa|PG-13|300|
    LongDeion : Рушащиеся, словно карточные домики, здания, разорванные линии электропередач, поднятые в воздух автомобили и животные, гибнущие люди… Мелкими и незначительными оказываются личные неурядицы героев перед лицом разбушевавшейся стихии.// В отчаянный поединок с грозным и малоизученным явлением природы вступают ученые-метеорологи.
    HDVideo : Yes
    Video
    ID : 1
    Format : AVC
    Format/Info : Advanced Video Codec
    Format profile : High@L4.1
    Format settings, CABAC : Yes
    Format settings, ReFrames : 11 frames
    Codec ID : avc1
    Codec ID/Info : Advanced Video Coding
    Duration : 1h 53mn
    Bit rate : 1 980 Kbps
    Maximum bit rate : 6 959 Kbps
    Width : 1 280 pixels
    Height : 528 pixels
    Display aspect ratio : 2.40: 1
    Frame rate mode : Constant
    Frame rate : 23.976 fps
    Color space : YUV
    Chroma subsampling : 4: 2: 0
    Bit depth : 8 bits
    Scan type : Progressive
    Bits/(Pixel*Frame) : 0.122
    Stream size : 1.56 GiB (93%)
    Writing library : x264 core 146 r2538 121396c
    Encoding settings : cabac=1/ref=11/deblock=1: -1: -1/analyse=0x3: 0x133/me=umh/subme=9/psy=1/psy_rd=1.00: 0.00/mixed_ref=1/me_range=24/chroma_me=1/trellis=2/8x8dct=1/cqm=0/deadzone=21, 11/fast_pskip=1/chroma_qp_offset=-2/threads=3/lookahead_threads=1/sliced_threads=0/nr=0/decimate=1/interlaced=0/bluray_compat=0/constrained_intra=0/bframes=4/b_pyramid=2/b_adapt=2/b_bias=0/direct=3/weightb=1/open_gop=0/weightp=2/keyint=240/keyint_min=23/scenecut=40/intra_refresh=0/rc_lookahead=60/rc=crf/mbtree=1/crf=21.0/qcomp=0.60/qpmin=0/qpmax=69/qpstep=4/ip_ratio=1.40/aq=1: 1.50
    Encoded date : UTC 2015-06-24 04: 22: 27
    Tagged date : UTC 2015-06-24 16: 30: 51
    Audio
    ID : 2
    Format : AAC
    Format/Info : Advanced Audio Codec
    Format profile : LC
    Codec ID : 40
    Duration : 1h 53mn
    Bit rate mode : Variable
    Bit rate : 150 Kbps
    Maximum bit rate : 222 Kbps
    Channel count : 2 channels
    Channel positions : Front: L R
    Sampling rate : 44.1 KHz
    Compression mode : Lossy
    Stream size : 121 MiB (7%)
    Language : Russian
    Encoded date : UTC 2015-06-24 16: 30: 36
    Tagged date : UTC 2015-06-24 16: 30: 51

    Скриншоты


    Залил: KinoGadget
    Размер скачиваемого торрента: 1.69 GB (1811663033 Bytes)

    Смерч/Twister (1996) BDRip 720p от KinoGadget | iPad
    загрузка...
    Рейтинг →
     (голосов: 1, оценка 5/5, голосовать можно 1 раз )

    Другие торренты по теме:

  • Морские дьяволы. Смерч (2013) SATRip от Getty
  • Морские дьяволы. Смерч. Судьбы (2012) SATRip от КинозалSAT
  • Морские дьяволы. Смерч (2012) SATRip от КинозалSAT
  • Морские дьяволы. Смерч. Судьбы (2013) SATRip
  • Морские дьяволы. Смерч. Судьбы (2013) DVB
  • Смерч / Twister (1996) BDRip 1080р | D, A, P
  • Ледяной шторм / Ледяной смерч / Ice Twisters (2009) BDRip-AVC от ExKinoRay | P, P2 | Лицензия
  • Смерч / Twister (1996) HDRip от Scarabey | D скачать через торрент бесплатно


    • Комментарии (0):

      Информация

      Информация

        Посетители, находящиеся в группе Гости, не могут оставлять комментарии в данной новости.

        ↓ Меню



        ↓ Опрос

        А Вы добавили сайт в закладки?
        Да
        Не


        Top 10 за месяц (Фильмы)