.
Авторизация | Регистрация
Хочешь лучшие торренты? Добавь свой email!
Добавить
» » Мэгги / Maggie (2015) BDRip 1080p | A, P, L, L1 скачать торрент бесплатно




    Мэгги / Maggie (2015) BDRip 1080p | A, P, L, L1 скачать торрент бесплатно

    Опубликовал: Админ | Дата: 24-06-2015, 05:17 | Просмотров: 75



    Детально о кино
    Русское название: Мэгги
    Русское название в мировом прокате: Maggie
    Создали в: 2015
    Категория жанра: Драма, триллер, ужасы
    Снималось в: США, Швейцария, Gold Star Films, Lotus Entertainment (II), Matt Baer Films, Silver Reel, Sly Predator
    Главный режиссер: Генри Хобсон

    Актеры
    Арнольд Шварценеггер, Эбигейл Бреслин, Джоэли Ричардсон, Лора Кайюэтт, Эми Брассетт, Денис Уильямсон, Дж.Д. Эвермор, Рэден Грир, Эйден Флауэрс, Тейлор Мерфи

    Сюжет фильма
    Фильм открывает нам постапокалиптическое будущее, которое вовсе не радует своими видами и не обещает красивой жизни. Ко всему прочему, на земле бушует вирус, превращающий людей в зомби. Совсем неожиданно, в числе зараженных людей, оказывается и главная героиня данной киноленты — Мэгги. Мегги ничем не отличается от своих сверстников, она самая обычная шестнадцатилетняя девочка-подросток, которая к сожалению, теряет человеческий облик. Арнольд Шварценеггер исполняет роль отца бедной девочки, который всеми силами пытается помочь своей дочери и поддержать ее в столь непростой ситуации. Им предстоит пройти чрез многое и не понятно, справятся ли они со всеми трудностями, среди которых и прогрессирующий вирус, кажется не таким страшным. Фильм не является типичным клише, про зомби, которые хотят съесть всех вокруг, данный фильм сочетает в себе нечто иное, но об этом вы сможете узнать, посмотрев его...
    Файл
    Качество фильма: BDRip (1080p)
    Информация о видео: MPEG-4 AVC, 17000 Кбит/с, 1920x800, 23.976 кадр/с
    Аудио #1: Русский: AC3, 48.0 KHz, 6 ch, 384 Kbps - (ViruseProject)
    Аудио #2: Русский: AC3, 48.0 KHz, 6 ch, 384 Kbps - (Д.Есарев)
    Аудио #3: Русский: AC3, 48.0 KHz, 6 ch, 448 Kbps - (HamsterStudio)
    Аудио #4: Русский: AC3, 48.0 KHz, 6 ch, 384 Kbps - (Lord32x)
    Аудио #5: Английский: DTS, 48.0 KHz, 6 ch, 1510 Kbps - (Оригинал)
    Аудио #5: Английский: AC3, 48.0 KHz, 2 ch, 192 Kbps - (Directors Commentary)
    Размер скачиваемого торрента: 13.47 ГБ
    Время просмотра: 01: 35: 03
    Перевод текста: Профессиональный многоголосый, авторский, любительский многоголосый, любительский одноголосый
    Субтитры: Русские, английские
    MI
    бщее
    Уникальный идентификатор : 189247847600967746536443462144097380309 (0x8E5FCF45E9FE878DAB717D1450E1E7D5)
    Полное имя : D: Maggie.2015.1080p.BluRay.DTS.x264-HDAccess.mkv
    Формат : Matroska
    Версия формата : Version 2
    Размер файла : 13, 5 Гбайт
    Продолжительность : 1 ч. 35 м.
    Общий поток : 20, 3 Мбит/сек
    Название фильма : Maggie.2015
    Дата кодирования : UTC 2015-06-23 18: 40: 02
    Программа кодирования : mkvmerge v7.9.0 (;Birds;) 64bit
    Библиотека кодирования : libebml v1.3.1 + libmatroska v1.4.2
    Attachements : Maggie.jpg
    Видео
    Идентификатор : 1
    Формат : AVC
    Формат/Информация : Advanced Video Codec
    Профиль формата : High@L4.1
    Параметр CABAC формата : Да
    Параметр ReFrames формата : 5 кадров
    Идентификатор кодека : V_MPEG4/ISO/AVC
    Продолжительность : 1 ч. 35 м.
    Битрейт : 17, 0 Мбит/сек
    Ширина : 1920 пикселей
    Высота : 800 пикселей
    Соотношение сторон : 2, 40: 1
    Режим частоты кадров : Постоянный
    Частота кадров : 23, 976 кадра/сек
    Цветовое пространство : YUV
    Субдискретизация насыщенности : 4: 2: 0
    Битовая глубина : 8 бит
    Тип развёртки : Прогрессивная
    Бит/(Пиксели*Кадры) : 0.462
    Размер потока : 11, 0 Гбайт (82%)
    Заголовок : Maggie.2015
    Библиотека кодирования : x264 core 146 r2538 121396c
    Настройки программы : cabac=1/ref=5/deblock=1: -2: -2/analyse=0x3: 0x33/me=umh/subme=11/psy=1/psy_rd=1.10: 0.10/mixed_ref=1/me_range=32/chroma_me=1/trellis=2/8x8dct=1/cqm=0/deadzone=21, 11/fast_pskip=0/chroma_qp_offset=-3/threads=12/lookahead_threads=2/sliced_threads=0/nr=0/decimate=0/interlaced=0/bluray_compat=0/constrained_intra=0/bframes=9/b_pyramid=2/b_adapt=2/b_bias=0/direct=3/weightb=1/open_gop=0/weightp=2/keyint=240/keyint_min=23/scenecut=40/intra_refresh=0/rc=2pass/mbtree=0/bitrate=17000/ratetol=1.0/qcomp=0.60/qpmin=0/qpmax=69/qpstep=4/cplxblur=20.0/qblur=0.5/ip_ratio=1.40/pb_ratio=1.30/aq=3: 0.90
    Язык : English
    Default : Да
    Forced : Нет
    Аудио #1
    Идентификатор : 2
    Формат : AC-3
    Формат/Информация : Audio Coding 3
    Расширение режима : CM (complete main)
    Параметр Endianness формата : Big
    Идентификатор кодека : A_AC3
    Продолжительность : 1 ч. 35 м.
    Вид битрейта : Постоянный
    Битрейт : 384 Кбит/сек
    Каналы : 6 каналов
    Расположение каналов : Front: L C R, Side: L R, LFE
    Частота : 48, 0 КГц
    Метод сжатия : С потерями
    Размер потока : 261 Мбайт (2%)
    Заголовок : AC3/5.1/384 kbps/ViruseProject
    Язык : Russian
    Default : Да
    Forced : Нет
    Аудио #2
    Идентификатор : 3
    Формат : AC-3
    Формат/Информация : Audio Coding 3
    Расширение режима : CM (complete main)
    Параметр Endianness формата : Big
    Идентификатор кодека : A_AC3
    Продолжительность : 1 ч. 35 м.
    Вид битрейта : Постоянный
    Битрейт : 384 Кбит/сек
    Каналы : 6 каналов
    Расположение каналов : Front: L C R, Side: L R, LFE
    Частота : 48, 0 КГц
    Метод сжатия : С потерями
    Размер потока : 261 Мбайт (2%)
    Заголовок : AC3/5.1/384 kbps/D.Esarev
    Язык : Russian
    Default : Нет
    Forced : Нет
    Аудио #3
    Идентификатор : 4
    Формат : AC-3
    Формат/Информация : Audio Coding 3
    Расширение режима : CM (complete main)
    Параметр Endianness формата : Big
    Идентификатор кодека : A_AC3
    Продолжительность : 1 ч. 35 м.
    Вид битрейта : Постоянный
    Битрейт : 448 Кбит/сек
    Каналы : 6 каналов
    Расположение каналов : Front: L C R, Side: L R, LFE
    Частота : 48, 0 КГц
    Метод сжатия : С потерями
    Размер потока : 305 Мбайт (2%)
    Заголовок : AC3/5.1/448 kbps/HamsterStudio
    Язык : Russian
    Default : Нет
    Forced : Нет
    Аудио #4
    Идентификатор : 5
    Формат : AC-3
    Формат/Информация : Audio Coding 3
    Расширение режима : CM (complete main)
    Параметр Endianness формата : Big
    Идентификатор кодека : A_AC3
    Продолжительность : 1 ч. 35 м.
    Вид битрейта : Постоянный
    Битрейт : 384 Кбит/сек
    Каналы : 6 каналов
    Расположение каналов : Front: L C R, Side: L R, LFE
    Частота : 48, 0 КГц
    Метод сжатия : С потерями
    Размер потока : 261 Мбайт (2%)
    Заголовок : AC3/5.1/384 kbps/Lord32x
    Язык : Russian
    Default : Нет
    Forced : Нет
    Аудио #5
    Идентификатор : 6
    Формат : DTS
    Формат/Информация : Digital Theater Systems
    Режим : 16
    Параметр Endianness формата : Big
    Идентификатор кодека : A_DTS
    Продолжительность : 1 ч. 35 м.
    Вид битрейта : Постоянный
    Битрейт : 1509 Кбит/сек
    Каналы : 6 каналов
    Расположение каналов : Front: L C R, Side: L R, LFE
    Частота : 48, 0 КГц
    Битовая глубина : 24 бит
    Метод сжатия : С потерями
    Размер потока : 1, 00 Гбайт (7%)
    Заголовок : Original
    Язык : English
    Default : Нет
    Forced : Нет
    Аудио #6
    Идентификатор : 7
    Формат : AC-3
    Формат/Информация : Audio Coding 3
    Расширение режима : CM (complete main)
    Параметр Endianness формата : Big
    Идентификатор кодека : A_AC3
    Продолжительность : 1 ч. 35 м.
    Вид битрейта : Постоянный
    Битрейт : 192 Кбит/сек
    Каналы : 2 канала
    Расположение каналов : Front: L R
    Частота : 48, 0 КГц
    Метод сжатия : С потерями
    Размер потока : 131 Мбайт (1%)
    Заголовок : Directors Commentary
    Язык : English
    Default : Нет
    Forced : Нет
    Текст #1
    Идентификатор : 8
    Формат : UTF-8
    Идентификатор кодека : S_TEXT/UTF8
    Идентификатор кодека/Информация : UTF-8 Plain Text
    Заголовок : ViruseProject
    Язык : Russian
    Default : Нет
    Forced : Нет
    Текст #2
    Идентификатор : 9
    Формат : UTF-8
    Идентификатор кодека : S_TEXT/UTF8
    Идентификатор кодека/Информация : UTF-8 Plain Text
    Заголовок : Full
    Язык : English
    Default : Нет
    Forced : Нет
    Текст #3
    Идентификатор : 10
    Формат : UTF-8
    Идентификатор кодека : S_TEXT/UTF8
    Идентификатор кодека/Информация : UTF-8 Plain Text
    Заголовок : SDH
    Язык : English
    Default : Нет
    Forced : Нет
    Меню
    00: 00: 00.000 : en: 00: 00: 00.000
    00: 05: 52.936 : en: 00: 05: 52.936
    00: 11: 26.102 : en: 00: 11: 26.102
    00: 15: 55.121 : en: 00: 15: 55.121
    00: 21: 30.498 : en: 00: 21: 30.498
    00: 26: 50.609 : en: 00: 26: 50.609
    00: 35: 09.065 : en: 00: 35: 09.065
    00: 39: 17.939 : en: 00: 39: 17.939
    00: 43: 35.780 : en: 00: 43: 35.780
    00: 50: 51.131 : en: 00: 50: 51.131
    00: 58: 38.014 : en: 00: 58: 38.014
    01: 02: 09.517 : en: 01: 02: 09.517
    01: 10: 28.808 : en: 01: 10: 28.808
    01: 17: 32.189 : en: 01: 17: 32.189
    01: 23: 27.502 : en: 01: 23: 27.502
    01: 26: 38.693 : en: 01: 26: 38.693

    Скриншоты


    Размер скачиваемого торрента: 13.47 GB (14467989525 Bytes)

    Мэгги/Maggie (2015) BDRip 1080p | A, P, L, L1
    загрузка...
    Рейтинг →
     (голосов: 1, оценка 5/5, голосовать можно 1 раз )

    Другие торренты по теме:

  • Мэгги / Maggie (2014) WEB-DLRip | L1
  • Мэгги / Maggie (2014) WEB-DL 720p | L2
  • Мэгги / Maggie (2015) WEB-DLRip от Scarabey | L
  • Мэгги / Maggie (2015) WEB-DL 720p | ViruseProject
  • Мэгги / Maggie (2015) WEB-DLRip от ViruseProject | P
  • Мэгги / Maggie (2015) HDRip | P
  • Мэгги / Maggie (2015) HDRip | P
  • Мэгги / Maggie (2015) BDRip 720p | P, L


    • Комментарии (0):

      Информация

      Информация

        Посетители, находящиеся в группе Гости, не могут оставлять комментарии в данной новости.

        ↓ Меню



        ↓ Опрос

        А Вы добавили сайт в закладки?
        Да
        Не


        Top 10 за месяц (Фильмы)