.
Авторизация | Регистрация
Хочешь лучшие торренты? Добавь свой email!
Добавить
» » Гимнастки / Добиться или сломаться / Make It or Break It (2010-2011) WEB-DL 720p | MTV Russia скачать торрент бесплатно




    Гимнастки / Добиться или сломаться / Make It or Break It (2010-2011) WEB-DL 720p | MTV Russia скачать торрент бесплатно

    Опубликовал: Админ | Дата: 24-06-2015, 05:05 | Просмотров: 66



    Информация о сериале
    Русское название: Гимнастки
    Русское название в мировом прокате: Make It or Break It
    Годы выхода: 2010-2011
    Категория жанра: драма, спорт
    Автор идеи: Холли Соренсен/Holly Sorensen/
    Главный режиссеры: Дэвид Пэймер/David Paymer/ , Крис Грисмер/Chris Grismer/ , Стив Майнер/Steve Miner/ и др.

    Актеры
    Айла Келл/Ayla Kell/ , Джози Лорен/Josie Loren/ , Касси Скербо/Cassie Scerbo/ , Челси Хоббс/Chelsea Hobbs/ , Кендес Камерон Буре/Candace Cameron Bure/ , Нил Джексон/Neil Jackson/ , Энтони Старк/Anthony Starke/ , Пери Гилпин/Peri Gilpin/ , Сьюзэн Уорд/Susan Ward/ , Джонни Пакар/Johnny Pacar/ и др.
    О сериале:
    Боулдер, Колорадо — город, в котором располагается одна из лучших тренировочных баз по спортивной гимнастике. Это также дом для трех олимпийских надежд — целеустремленной Пэйсон Килер, соперничающей со всеми Лорен Таннер и пользующейся спросом Кейли Круз. Все они являются главными кандидатами на первые три места в национальном чемпионате.
    Все меняется с внезапным прибытием Эмили Кметко. Неудивительно, что восхождение темной лошадки помешало многим людям, прежде всего Лорен, которая поставила перед собой задачу донимать новенькую на каждом шагу.

    Снималось в: США
    Киностудия: ABC Family
    Время просмотра: 20 x ~ 00: 44: 00
    Перевод текста: Профессиональный (многоголосый, закадровый) -MTV Russia
    Файл
    Кодек для видео: H.264
    Качество фильма: WEB-DL 720p
    Информация о видео: 1280x720 at 23.976 fps, MPEG-4 AVC, ~3800 kbps avg
    Информация о звуке#1: Russian: 48 kHz, AC3, 2/0 (L, R) ch, ~192.00 kbps avg |Многоголосый закадровый, MTV Russia |
    Информация о звуке#2: English: 48 kHz, AC3, 3/2 (L, C, R, l, r) + LFE ch, ~384.00 kbps avg |Оригинал|
    Субтитры: none
    Скриншоты

    MediaInfo
    General
    Complete name : Make.It.or.Break.It.S02E01.720p.WEB-DL.MTV.mkv
    Format : Matroska
    Format version : Version 2
    File size : 1.37 GiB
    Duration : 44mn 18s
    Overall bit rate : 4 442 Kbps
    Movie name : Make It or Break It S02E01 ;Friends Close, Enemies Closer; by SPS
    Encoded date : UTC 2012-09-30 15: 23: 52
    Writing application : mkvmerge v5.8.0 (;No Sleep/Pillow;) built on Sep 2 2012 15: 37: 04
    Writing library : libebml v1.2.3 + libmatroska v1.3.0
    Video
    ID : 1
    Format : AVC
    Format/Info : Advanced Video Codec
    Format profile : High@L3.1
    Format settings, CABAC : No
    Format settings, ReFrames : 2 frames
    Codec ID : V_MPEG4/ISO/AVC
    Duration : 44mn 18s
    Bit rate : 3 777 Kbps
    Width : 1 280 pixels
    Height : 720 pixels
    Display aspect ratio : 16: 9
    Frame rate mode : Constant
    Frame rate : 23.976 fps
    Color space : YUV
    Chroma subsampling : 4: 2: 0
    Bit depth : 8 bits
    Scan type : Progressive
    Bits/(Pixel*Frame) : 0.171
    Stream size : 1.17 GiB (85%)
    Language : English
    Default : No
    Forced : No
    Color range : Limited
    Color primaries : BT.709
    Transfer characteristics : BT.709
    Matrix coefficients : BT.709
    Audio #1
    ID : 2
    Format : AC-3
    Format/Info : Audio Coding 3
    Mode extension : CM (complete main)
    Format settings, Endianness : Big
    Codec ID : A_AC3
    Duration : 44mn 18s
    Bit rate mode : Constant
    Bit rate : 192 Kbps
    Channel(s) : 2 channels
    Channel positions : Front: L R
    Sampling rate : 48.0 KHz
    Compression mode : Lossy
    Stream size : 60.9 MiB (4%)
    Title : MTV
    Language : Russian
    Default : Yes
    Forced : No
    Audio #2
    ID : 3
    Format : AC-3
    Format/Info : Audio Coding 3
    Mode extension : CM (complete main)
    Format settings, Endianness : Big
    Codec ID : A_AC3
    Duration : 44mn 18s
    Bit rate mode : Constant
    Bit rate : 384 Kbps
    Channel(s) : 6 channels
    Channel positions : Front: L C R, Side: L R, LFE
    Sampling rate : 48.0 KHz
    Compression mode : Lossy
    Stream size : 122 MiB (9%)
    Language : English
    Default : No
    Forced : No
    Список серий
    01. Friends Close, Enemies Closer/Держи друзей близко, а врагов – еще ближе
    02. All or Nothing/Всё или ничего
    03. Battle of the Flexes/Битва полов
    04. And the Rocky Goes To.../И награда достается...
    05. I Won;t Dance, Don;t Ask Me/Я не танцую, не просите
    06. Party Gone Out of Bounds/Веселье без границ
    07. What Are You Made Of?/Из какого ты теста?
    08. Rock Bottom/На дне
    09. If Only.../Если бы только...
    10. At the Edge of the Worlds/На краю всемирных соревнований
    11. The New Normal/Всё нормально
    12. Free People/Свободные люди
    13. The Buddy System/Система приятеля
    14. Life or Death/Жизнь или смерть
    15. Hungary Heart/Сердце Венгрии
    16. Requiem for a Dream/Реквием по мечте
    17. To Thine Own Self Be True/Быть верным себе
    18. Dog Eat Dog/И пёс пожрал пса
    19. What Lies Beneath/Что скрывает ложь
    20. Worlds Apart/Все врозь


    Онлайн видео Гимнастки


    Размер скачиваемого торрента: 27.84 GB (29893649457 Bytes)

    Гимнастки/Добиться или сломаться/Make It or Break It (2010-2011) WEB-DL 720p | MTV Russia
    загрузка...
    Рейтинг →
     (голосов: 1, оценка 4/5, голосовать можно 1 раз )

    Другие торренты по теме:

  • Гимнастки / Добиться или сломаться / Make It or Break It (2009-2010) WEB-DL 720p | MTV Russia
  • Гимнастки / Добиться или сломаться / Make It or Break It (2012) WEB-DL 720p | MTV Russia


    • Комментарии (0):

      Информация

      Информация

        Посетители, находящиеся в группе Гости, не могут оставлять комментарии в данной новости.

        ↓ Меню



        ↓ Опрос

        А Вы добавили сайт в закладки?
        Да
        Не


        Top 10 за месяц (Фильмы)