.
Авторизация | Регистрация
Хочешь лучшие торренты? Добавь свой email!
Добавить
» » Лесной змей / Wyrmwood (2014) BDRip-AVC | L1, L2, A скачать торрент бесплатно




    Лесной змей / Wyrmwood (2014) BDRip-AVC | L1, L2, A скачать торрент бесплатно

    Опубликовал: Админ | Дата: 23-06-2015, 05:10 | Просмотров: 106



    Детально о кино
    Русское название: Лесной змей
    Русское название в мировом прокате: Wyrmwood
    Создали в: 2014
    Категория жанра: ужасы
    Главный режиссер: Кия Роуч-Тернер

    Актеры
    Джей Галлахер, Бьянка Брэди, Леон Бурчилл, Люк МакКензи, Юр Кович, Кит Агиус, Катрин Террачини, Кэйн Томпсон, Бет Обри

    Сюжет фильма

    Барри был талантливым механиком и семейным человеком, пока его жизнь не была разрушена в канун зомби-апокалипсиса. В дороге он объединяется с ещё одним выжившим, Чалкером, и вместе они вооружают себя, чтобы противостоять на своём пути орде плотоядных монстров, рыщущих в суровых австралийских зарослях.

    Снималось в: Австралия
    Киностудия: Guerilla Films
    Время просмотра: 01: 38: 17
    Перевод текста: Любительский (одноголосый) Хихикающий доктор , Авторский (одноголосый) Есарев, Есарев (без цензуры)) , Любительский (двухголосый) DeadSno den904
    Файл
    Кодек для видео: MPEG-4 AVC (MKV)
    Качество фильма: BDRip-AVC (исх. Blu-Ray Remux 1080p)
    Информация о видео: AVC, 1024x560, 2000 Kbps
    Информация о звуке: Русский (Хихидок): AC3, 6 ch, 448 Kbps, Русский (Есарев, Есарев (без цензуры)): AC3, 6 ch, 448 Kbps, Русский (DeadSno den904): AC3, 6 ch, 384 Kbps, английский: AC3, 6 ch, 448 Kbps
    Субтитры: английские

    Скриншоты
    MediaInfo
    General
    Unique ID : 228540473147697691709535541387076818562 (0xABEF4B486E4F5978B62F8BD12E0FD682)
    Complete name : D: ДИСК?1.ФИЛЬМЫЛесной змей Wyrmwood (2014)Wyrmwood (2014) BDRip-AVC Wyrmwood (2014) BDRip-AVC (1).mkv
    Format : Matroska
    Format version : Version 4/Version 2
    File size : 2.87 GiB
    Duration : 1h 38mn
    Overall bit rate : 4 179 Kbps
    Movie name : Release by ARHANGEL
    Encoded date : UTC 2015-06-21 07: 19: 59
    Writing application : mkvmerge v7.7.0 (;Six Voices;) 64bit built on Feb 28 2015 23: 39: 33
    Writing library : XviD4PSP 6.0/54.29.105
    DURATION : 01: 35: 29.546000000
    NUMBER_OF_FRAMES : 955
    NUMBER_OF_BYTES : 30509
    _STATISTICS_WRITING_APP : mkvmerge v7.7.0 (;Six Voices;) 64bit built on Feb 28 2015 23: 39: 33
    _STATISTICS_WRITING_DATE_UTC : 2015-06-21 20: 00: 02
    _STATISTICS_TAGS : BPS DURATION NUMBER_OF_FRAMES NUMBER_OF_BYTES
    Video
    ID : 1
    Format : AVC
    Format/Info : Advanced Video Codec
    Format profile : High@L4.1
    Format settings, CABAC : Yes
    Format settings, ReFrames : 6 frames
    Codec ID : V_MPEG4/ISO/AVC
    Duration : 1h 38mn
    Bit rate : 2 000 Kbps
    Width : 1 024 pixels
    Height : 560 pixels
    Display aspect ratio : 1.85: 1
    Frame rate mode : Constant
    Frame rate : 24.000 fps
    Color space : YUV
    Chroma subsampling : 4: 2: 0
    Bit depth : 8 bits
    Scan type : Progressive
    Bits/(Pixel*Frame) : 0.145
    Stream size : 1.32 GiB (46%)
    Writing library : x264 core 128 r2216M 198a7ea
    Encoding settings : cabac=1/ref=7/deblock=1: -3: -3/analyse=0x3: 0x133/me=umh/subme=7/psy=1/psy_rd=1.00: 0.20/mixed_ref=1/me_range=24/chroma_me=1/trellis=2/8x8dct=1/cqm=0/deadzone=21, 11/fast_pskip=1/chroma_qp_offset=-3/threads=6/lookahead_threads=1/sliced_threads=0/nr=0/decimate=1/interlaced=0/bluray_compat=0/constrained_intra=0/bframes=7/b_pyramid=1/b_adapt=2/b_bias=7/direct=3/weightb=1/open_gop=0/weightp=2/keyint=240/keyint_min=24/scenecut=40/intra_refresh=0/rc_lookahead=40/rc=2pass/mbtree=1/bitrate=2000/ratetol=1.0/qcomp=0.60/qpmin=0/qpmax=69/qpstep=4/cplxblur=20.0/qblur=0.5/ip_ratio=1.40/aq=1: 1.00
    Language : English
    Default : Yes
    Forced : No
    _STATISTICS_TAGS : BPS DURATION NUMBER_OF_FRAMES NUMBER_OF_BYTES
    _STATISTICS_WRITING_APP : mkvmerge v7.7.0 (;Six Voices;) 64bit built on Feb 28 2015 23: 39: 33
    _STATISTICS_WRITING_DATE_UTC : 2015-06-21 07: 19: 59
    DURATION : 01: 38: 17.667000000
    NUMBER_OF_FRAMES : 141544
    NUMBER_OF_BYTES : 1474232647
    Audio #1
    ID : 2
    Format : AC-3
    Format/Info : Audio Coding 3
    Mode extension : CM (complete main)
    Format settings, Endianness : Big
    Codec ID : A_AC3
    Duration : 1h 38mn
    Bit rate mode : Constant
    Bit rate : 448 Kbps
    Channel(s) : 6 channels
    Channel positions : Front: L C R, Side: L R, LFE
    Sampling rate : 48.0 KHz
    Bit depth : 16 bits
    Compression mode : Lossy
    Delay relative to video : 27ms
    Stream size : 315 MiB (11%)
    Title : Хихикающий доктор
    Language : Russian
    Default : Yes
    Forced : No
    _STATISTICS_TAGS : BPS DURATION NUMBER_OF_FRAMES NUMBER_OF_BYTES
    _STATISTICS_WRITING_APP : mkvmerge v7.7.0 (;Six Voices;) 64bit built on Feb 28 2015 23: 39: 33
    _STATISTICS_WRITING_DATE_UTC : 2015-06-21 07: 19: 59
    DURATION : 01: 38: 17.664000000
    NUMBER_OF_FRAMES : 184302
    NUMBER_OF_BYTES : 330269184
    Audio #2
    ID : 3
    Format : AC-3
    Format/Info : Audio Coding 3
    Mode extension : CM (complete main)
    Format settings, Endianness : Big
    Codec ID : A_AC3
    Duration : 1h 38mn
    Bit rate mode : Constant
    Bit rate : 448 Kbps
    Channel(s) : 6 channels
    Channel positions : Front: L C R, Side: L R, LFE
    Sampling rate : 44.1 KHz
    Bit depth : 16 bits
    Compression mode : Lossy
    Delay relative to video : 29ms
    Stream size : 315 MiB (11%)
    Title : Есарев
    Language : Russian
    Default : No
    Forced : No
    _STATISTICS_TAGS : BPS DURATION NUMBER_OF_FRAMES NUMBER_OF_BYTES
    _STATISTICS_WRITING_APP : mkvmerge v7.7.0 (;Six Voices;) 64bit built on Feb 28 2015 23: 39: 33
    _STATISTICS_WRITING_DATE_UTC : 2015-06-21 07: 19: 59
    DURATION : 01: 38: 17.509000000
    NUMBER_OF_FRAMES : 169323
    NUMBER_OF_BYTES : 330260480
    Audio #3
    ID : 4
    Format : AC-3
    Format/Info : Audio Coding 3
    Mode extension : CM (complete main)
    Format settings, Endianness : Big
    Codec ID : A_AC3
    Duration : 1h 38mn
    Bit rate mode : Constant
    Bit rate : 448 Kbps
    Channel(s) : 6 channels
    Channel positions : Front: L C R, Side: L R, LFE
    Sampling rate : 44.1 KHz
    Bit depth : 16 bits
    Compression mode : Lossy
    Delay relative to video : 29ms
    Stream size : 315 MiB (11%)
    Title : Есарев (без цензуры)
    Language : Russian
    Default : No
    Forced : No
    _STATISTICS_TAGS : BPS DURATION NUMBER_OF_FRAMES NUMBER_OF_BYTES
    _STATISTICS_WRITING_APP : mkvmerge v7.7.0 (;Six Voices;) 64bit built on Feb 28 2015 23: 39: 33
    _STATISTICS_WRITING_DATE_UTC : 2015-06-21 07: 19: 59
    DURATION : 01: 38: 17.648000000
    NUMBER_OF_FRAMES : 169327
    NUMBER_OF_BYTES : 330268282
    Audio #4
    ID : 5
    Format : AC-3
    Format/Info : Audio Coding 3
    Mode extension : CM (complete main)
    Format settings, Endianness : Big
    Codec ID : A_AC3
    Duration : 1h 38mn
    Bit rate mode : Constant
    Bit rate : 384 Kbps
    Channel(s) : 6 channels
    Channel positions : Front: L C R, Side: L R, LFE
    Sampling rate : 48.0 KHz
    Bit depth : 16 bits
    Compression mode : Lossy
    Delay relative to video : 27ms
    Stream size : 270 MiB (9%)
    Title : DeadSno den904
    Language : Russian
    Default : No
    Forced : No
    _STATISTICS_TAGS : BPS DURATION NUMBER_OF_FRAMES NUMBER_OF_BYTES
    _STATISTICS_WRITING_APP : mkvmerge v7.7.0 (;Six Voices;) 64bit built on Feb 28 2015 23: 39: 33
    _STATISTICS_WRITING_DATE_UTC : 2015-06-21 07: 19: 59
    DURATION : 01: 38: 17.504000000
    NUMBER_OF_FRAMES : 184297
    NUMBER_OF_BYTES : 283080192
    Audio #5
    ID : 6
    Format : AC-3
    Format/Info : Audio Coding 3
    Mode extension : CM (complete main)
    Format settings, Endianness : Big
    Codec ID : A_AC3
    Duration : 1h 38mn
    Bit rate mode : Constant
    Bit rate : 448 Kbps
    Channel(s) : 6 channels
    Channel positions : Front: L C R, Side: L R, LFE
    Sampling rate : 48.0 KHz
    Bit depth : 16 bits
    Compression mode : Lossy
    Delay relative to video : 27ms
    Stream size : 315 MiB (11%)
    Title : Original
    Language : English
    Default : No
    Forced : No
    _STATISTICS_TAGS : BPS DURATION NUMBER_OF_FRAMES NUMBER_OF_BYTES
    _STATISTICS_WRITING_APP : mkvmerge v7.7.0 (;Six Voices;) 64bit built on Feb 28 2015 23: 39: 33
    _STATISTICS_WRITING_DATE_UTC : 2015-06-21 07: 19: 59
    DURATION : 01: 38: 17.664000000
    NUMBER_OF_FRAMES : 184302
    NUMBER_OF_BYTES : 330269184
    Text
    ID : 7
    Format : UTF-8
    Codec ID : S_TEXT/UTF8
    Codec ID/Info : UTF-8 Plain Text
    Language : English
    Default : Yes
    Forced : No

    Релиз подготовил:

    Онлайн видео Лесной змей


    Размер скачиваемого торрента: 2.87 GB (3080809463 Bytes)

    Лесной змей/Wyrmwood (2014) BDRip-AVC | L1, L2, A
    загрузка...
    Рейтинг →
     (голосов: 1, оценка 3/5, голосовать можно 1 раз )

    Другие торренты по теме:

  • Лесной змей / Wyrmwood (2014) WEB-DLRip | L1 скачать через торрент бесплатно
  • Лесной змей / Wyrmwood (2014) WEB-DL 720p | L1 скачать через торрент бесплатно
  • Лесной змей / Wyrmwood (2014) HDRip | L1 скачать через торрент бесплатно
  • Лесной змей / Wyrmwood (2014) WEB-DLRip | L2 скачать через торрент бесплатно
  • Лесной змей / Wyrmwood (2014) BDRemux 1080p от NovaLan
  • Лесной змей / Wyrmwood (2014) BDRip 1080p | L2, A


    • Комментарии (0):

      Информация

      Информация

        Посетители, находящиеся в группе Гости, не могут оставлять комментарии в данной новости.

        ↓ Меню



        ↓ Опрос

        А Вы добавили сайт в закладки?
        Да
        Не


        Top 10 за месяц (Фильмы)