.
Авторизация | Регистрация
Хочешь лучшие торренты? Добавь свой email!
Добавить
» » Легкие деньги / Good People (2014) BDRip 720p от KinoGadget | iPad скачать торрент бесплатно




    Легкие деньги / Good People (2014) BDRip 720p от KinoGadget | iPad скачать торрент бесплатно

    Опубликовал: Админ | Дата: 22-06-2015, 05:13 | Просмотров: 69



    Создали в: 2014
    Снималось в: США
    Категория жанра: триллер, криминал, боевик
    Время просмотра: 01: 30: 13
    Перевод текста: Дублированный
    Главный режиссер: Генрик Рубен Генц

    Актеры
    Джеймс Франко, Кейт Хадсон, Омар Си, Том Уилкинсон, Сэм Спруэлл, Анна Фрил, Диармэйд Мурта, Диана Хардкэсл, Ласко Аткинс, Майкл Джибсон
    Описание: Том и Анна обыкновенная семейная пара. Работа, дом, долги по кредитам. Но ситуация меняется. Владелец их квартиры, живший этажом ниже, внезапно умирает, и супруги находят у него сумку с деньгами. 370 000 долларов, о которых, похоже, никто не знает. Жизнь Том и Анны может измениться в одночасье, но есть одна проблема. Эти деньги принадлежат бандитам, которые хотят их найти.

    Информация о видео кодек: MPEG-4 AVC
    Качество фильма: BDRip 720p
    Параметры Видео: 1280x720, 23.976 fps; ~2 768 kbps avg
    Параметры Звука: 44.1 KHz, AAC, ~150.00 kbps avg, 2ch
    Тип видео: mp4
    Автор рипа:
    Релиз-группа:

    Meta Tags


    MI
    General
    Complete name : E: Legkie.dengi_(Xoroshie_lyudi).2014.D.BDRip.720p_KinoGadget.mp4
    Format : MPEG-4
    Format profile : Base Media
    Codec ID : isom
    File size : 1.84 GiB
    Duration : 1h 30mn
    Overall bit rate mode : Variable
    Overall bit rate : 2 927 Kbps
    Movie name : Легкие деньги/Хорошие люди
    Performer : Генрик Рубен Генц
    Genre : Action, Crime, Thriller
    ContentType : Short Film
    Recorded date : 2014
    Encoded date : UTC 2015-06-21 17: 05: 16
    Tagged date : UTC 2015-06-21 17: 18: 31
    Cover : Yes
    ContentRating : mpaa|R|400|
    LongDeion : Том и Анна обыкновенная семейная пара. Работа, дом, долги по кредитам. Но ситуация меняется. Владелец их квартиры, живший этажом ниже, внезапно умирает, и супруги находят у него сумку с деньгами. 370 000 долларов, о которых, похоже, никто не знает. Жизнь Том и Анны может измениться в одночасье, но есть одна проблема. Эти деньги принадлежат бандитам, которые хотят их найти.
    HDVideo : Yes
    Video
    ID : 1
    Format : AVC
    Format/Info : Advanced Video Codec
    Format profile : High@L4.1
    Format settings, CABAC : Yes
    Format settings, ReFrames : 9 frames
    Codec ID : avc1
    Codec ID/Info : Advanced Video Coding
    Duration : 1h 30mn
    Bit rate : 2 768 Kbps
    Maximum bit rate : 9 792 Kbps
    Width : 1 280 pixels
    Height : 720 pixels
    Display aspect ratio : 16: 9
    Frame rate mode : Constant
    Frame rate : 23.976 fps
    Color space : YUV
    Chroma subsampling : 4: 2: 0
    Bit depth : 8 bits
    Scan type : Progressive
    Bits/(Pixel*Frame) : 0.125
    Stream size : 1.74 GiB (95%)
    Writing library : x264 core 146 r2538 121396c
    Encoding settings : cabac=1/ref=9/deblock=1: -1: -1/analyse=0x3: 0x133/me=umh/subme=9/psy=1/psy_rd=1.00: 0.00/mixed_ref=1/me_range=24/chroma_me=1/trellis=2/8x8dct=1/cqm=0/deadzone=21, 11/fast_pskip=1/chroma_qp_offset=-2/threads=3/lookahead_threads=1/sliced_threads=0/nr=0/decimate=1/interlaced=0/bluray_compat=0/constrained_intra=0/bframes=4/b_pyramid=2/b_adapt=2/b_bias=0/direct=3/weightb=1/open_gop=0/weightp=2/keyint=240/keyint_min=23/scenecut=40/intra_refresh=0/rc_lookahead=60/rc=crf/mbtree=1/crf=21.0/qcomp=0.60/qpmin=0/qpmax=69/qpstep=4/ip_ratio=1.40/aq=1: 1.50
    Encoded date : UTC 2015-06-19 08: 40: 15
    Tagged date : UTC 2015-06-21 17: 06: 16
    Audio
    ID : 2
    Format : AAC
    Format/Info : Advanced Audio Codec
    Format profile : LC
    Codec ID : 40
    Duration : 1h 30mn
    Bit rate mode : Variable
    Bit rate : 150 Kbps
    Maximum bit rate : 229 Kbps
    Channel count : 2 channels
    Channel positions : Front: L R
    Sampling rate : 44.1 KHz
    Compression mode : Lossy
    Stream size : 96.4 MiB (5%)
    Language : Russian
    Encoded date : UTC 2015-06-21 17: 06: 05
    Tagged date : UTC 2015-06-21 17: 06: 16

    Скриншоты


    Залил: KinoGadget

    Онлайн видео Легкие деньги


    Размер скачиваемого торрента: 1.84 GB (1980448484 Bytes)

    Легкие деньги/Good People (2014) BDRip 720p от KinoGadget | iPad
    загрузка...
    Рейтинг →
     (голосов: 1, оценка 5/5, голосовать можно 1 раз )

    Другие торренты по теме:

  • Легкие деньги / Free money (1998) WEB-DLRip от Leon-masl
  • Легкие деньги / Good People (2014) BDRip 1080p от KinoRay | L2
  • Легкие деньги / Хорошие люди / Good People (2014) HDRip от Scarabey | L2 скачать через торрент бесплатно
  • Хорошие люди / Легкие деньги / Good People (2014) BDRip 720p от Leonardo and Scarabey | L2 скачать через торрент бесплатно
  • Легкие деньги / Хорошие люди / Good People (2014) BDRip-AVC от MediaClub | D
  • Легкие деньги / Хорошие люди / Good People (2014) BDRip 720p от MediaClub | D
  • Легкие деньги / Good People (2014) HDRip | D
  • Легкие деньги / Хорошие люди / Good People (2014) BDRip от MediaClub | D


    • Комментарии (0):

      Информация

      Информация

        Посетители, находящиеся в группе Гости, не могут оставлять комментарии в данной новости.

        ↓ Меню



        ↓ Опрос

        А Вы добавили сайт в закладки?
        Да
        Не


        Top 10 за месяц (Фильмы)