.
Авторизация | Регистрация
Хочешь лучшие торренты? Добавь свой email!
Добавить
» » Терминатор: Генезис / Terminator: Genisys (2015) WEBRip 1080p | Фрагменты скачать торрент бесплатно




    Терминатор: Генезис / Terminator: Genisys (2015) WEBRip 1080p | Фрагменты скачать торрент бесплатно

    Опубликовал: Админ | Дата: 22-06-2015, 05:11 | Просмотров: 169



    Создали в: 2015
    Создали в: США
    Категория жанра: фантастика, боевик, триллер, приключения
    Перевод текста: Дублированный
    Главный режиссер: Алан Тейлор
    Продюсеры: Дэвид Эллисон, Дэна Голдберг, Билл Карраро
    Актеры: Эмилия Кларк, Арнольд Шварценеггер, Джай Кортни, Дж.К. Симмонс, Мэтт Смит. Джейсон Кларк, Ли Бён Хон, Сандрин Холт, Бретт Азар, Дуглас Смит
    Описание фильма:
    Когда Джон Коннор, лидер сопротивления, посылает сержанта Кайла Риза назад в 1984 год, чтобы защитить Сару Коннор и спасти будущее, неожиданный поворот событий создает разлом во времени. Сержант Риз оказывается в новой, незнакомой версии прошлого, где он встречает неожиданных союзников, в том числе Терминатора, новых опасных врагов, и новую миссию: изменить будущее…
    Дата мировой премьеры: 25 июня 2015
    Дата российской премьеры: 2 июля 2015

    Время просмотра: 00: 00: 56 + 00: 00: 58
    Качество фильма видео: WEBRip
    Информация о видеокодек: MPEG-4 AVC/H.264
    Битрейт видео: 2141 Кбит/сек, 3488 Кбит/сек
    Размер скачиваемого торрента кадра: 1920x1080
    Информация о звукекодек: AC3 5.1
    Битрейт аудио: 126 Кбит/сек, 126 Кбит/сек
    MediaInfo:

    Общее
    Полное имя : Terminator_-Genisys-fragmentsTerminator_-Genisys-fragment3.mp4
    Формат : MPEG-4
    Профиль формата : Base Media
    Идентификатор кодека : isom
    Размер файла : 15, 3 Мбайт
    Продолжительность : 56 с.
    Режим общего битрейта : Переменный
    Общий поток : 2269 Кбит/сек
    Дата кодирования : UTC 2015-06-17 10: 22: 35
    Дата пометки : UTC 2015-06-17 10: 22: 35
    Программа кодирования : Lavf53.21.1
    Видео
    Идентификатор : 1
    Формат : AVC
    Формат/Информация : Advanced Video Codec
    Профиль формата : Main@L4
    Параметр CABAC формата : Да
    Параметр ReFrames формата : 3 кадра
    Идентификатор кодека : avc1
    Идентификатор кодека/Информация : Advanced Video Coding
    Продолжительность : 56 с.
    Битрейт : 2141 Кбит/сек
    Ширина : 1920 пикселей
    Высота : 1080 пикселей
    Соотношение сторон : 16: 9
    Режим частоты кадров : Постоянный
    Частота кадров : 25, 000 кадров/сек
    Цветовое пространство : YUV
    Субдискретизация насыщенности : 4: 2: 0
    Битовая глубина : 8 бит
    Тип развёртки : Прогрессивная
    Бит/(Пиксели*Кадры) : 0.041
    Размер потока : 14, 4 Мбайт (94%)
    Библиотека кодирования : x264 core 120 r2151 a3f4407
    Дата кодирования : UTC 2015-06-17 10: 22: 35
    Дата пометки : UTC 2015-06-17 10: 22: 35
    Аудио
    Идентификатор : 2
    Формат : AAC
    Формат/Информация : Advanced Audio Codec
    Профиль формата : LC
    Идентификатор кодека : 40
    Продолжительность : 56 с.
    Вид битрейта : Переменный
    Битрейт : 126 Кбит/сек
    Каналы : 2 канала
    Расположение каналов : Front: L R
    Частота : 44, 1 КГц
    Метод сжатия : С потерями
    Размер потока : 864 Кбайт (6%)
    Дата кодирования : UTC 2015-06-17 10: 22: 35
    Дата пометки : UTC 2015-06-17 10: 22: 35
    Общее
    Полное имя : Terminator_-Genisys-fragmentsTerminator_-Genisys-fragment4.mp4
    Формат : MPEG-4
    Профиль формата : Base Media
    Идентификатор кодека : isom
    Размер файла : 25, 1 Мбайт
    Продолжительность : 58 с.
    Режим общего битрейта : Переменный
    Общий поток : 3616 Кбит/сек
    Дата кодирования : UTC 2015-06-17 10: 22: 10
    Дата пометки : UTC 2015-06-17 10: 22: 10
    Программа кодирования : Lavf53.21.1
    Видео
    Идентификатор : 1
    Формат : AVC
    Формат/Информация : Advanced Video Codec
    Профиль формата : Main@L4
    Параметр CABAC формата : Да
    Параметр ReFrames формата : 3 кадра
    Идентификатор кодека : avc1
    Идентификатор кодека/Информация : Advanced Video Coding
    Продолжительность : 58 с.
    Битрейт : 3488 Кбит/сек
    Ширина : 1920 пикселей
    Высота : 1080 пикселей
    Соотношение сторон : 16: 9
    Режим частоты кадров : Постоянный
    Частота кадров : 25, 000 кадров/сек
    Цветовое пространство : YUV
    Субдискретизация насыщенности : 4: 2: 0
    Битовая глубина : 8 бит
    Тип развёртки : Прогрессивная
    Бит/(Пиксели*Кадры) : 0.067
    Размер потока : 24, 2 Мбайт (96%)
    Библиотека кодирования : x264 core 120 r2151 a3f4407
    Дата кодирования : UTC 2015-06-17 10: 22: 10
    Дата пометки : UTC 2015-06-17 10: 22: 10
    Аудио
    Идентификатор : 2
    Формат : AAC
    Формат/Информация : Advanced Audio Codec
    Профиль формата : LC
    Идентификатор кодека : 40
    Продолжительность : 58 с.
    Вид битрейта : Переменный
    Битрейт : 126 Кбит/сек
    Каналы : 2 канала
    Расположение каналов : Front: L R
    Частота : 44, 1 КГц
    Метод сжатия : С потерями
    Размер потока : 892 Кбайт (3%)
    Дата кодирования : UTC 2015-06-17 10: 22: 10
    Дата пометки : UTC 2015-06-17 10: 22: 10

    Скриншоты



    Скриншоты



    Залил: Jokerzv

    Онлайн видео Терминатор: Генезис


    Размер скачиваемого торрента: 40.34 MB (42303578 Bytes)

    Терминатор: Генезис/Terminator: Genisys (2015) WEBRip 1080p | Фрагменты
    загрузка...
    Рейтинг →
     (голосов: 1, оценка 5/5, голосовать можно 1 раз )

    Другие торренты по теме:

  • Терминатор: Генезис / Terminator: Genisys (2015) DCPrip | 2K, Hi10P | Трейлеры
  • Терминатор: Генезис (2015) HDRip
  • Терминатор: Генезис / Terminator: Genisys (2015) WEBRip 1080p | Трейлер
  • Терминатор: Генезис / Terminator: Genisys (2015) WEBRip 1080p | Фрагменты
  • OST - Терминатор: Генезис / Terminator: Genisys (2015) FLAC
  • Терминатор: Генезис / Terminator: Genisys (2015) CAMRip
  • Терминатор: Генезис / Terminator: Genisys (2015) CAMRip
  • Терминатор: Генезис / Terminator: Genisys (2015) HDTVRip | Звук с TS


    • Комментарии (0):

      Информация

      Информация

        Посетители, находящиеся в группе Гости, не могут оставлять комментарии в данной новости.

        ↓ Меню



        ↓ Опрос

        А Вы добавили сайт в закладки?
        Да
        Не


        Top 10 за месяц (Фильмы)