.
Авторизация | Регистрация
Хочешь лучшие торренты? Добавь свой email!
Добавить
» » Куда приводят мечты / What Dreams May Come (1998) BDRip-AVC | D скачать торрент бесплатно




    Куда приводят мечты / What Dreams May Come (1998) BDRip-AVC | D скачать торрент бесплатно

    Опубликовал: Админ | Дата: 22-06-2015, 05:09 | Просмотров: 116




    Детально о кино
    Русское название: Куда приводят мечты
    Русское название в мировом прокате: What Dreams May Come
    Создали в: 1998
    Категория жанра: фэнтези, драма, мелодрама
    Главный режиссер: Винсент Уорд

    Актеры
    Робин Уильямс, Кьюба Гудинг мл., Аннабелла Шиорра, Макс фон Сюдов, Джессика Брукс Грант, Джош Пэддок, Розалинд Чао, Люсинда Дженни, Мэгги МакКарти, Уильма Бонет

    Сюжет фильма
    После гибели Криса Нилсена в автокатастрофе он, обретя бессмертие, пытается остаться рядом со своей прекрасной, но смертной женой Энни. С помощью дружественного духа, приставленного к нему в качестве проводника, он начинает привыкать к своему новому существованию в окружении, которое иначе как райским не назовешь. Но когда его обезумевшая от горя жена кончает жизнь самоубийством, ее проклинают и навечно изгоняют в ад. Крис изо всех сил пытается отыскать любимую, чтобы всегда быть с ней, но еще никому и никогда не удавалось спасти грешную душу от ужасного, но заслуженного возмездия. Благодаря помощи своих небесных друзей Крис отправляется в самое опасное и мучительное путешествие в своей жизни, точнее, в жизни после смерти.

    Снималось в: Polygram Filmed Entertainment
    Время просмотра: 01: 53: 44
    Перевод текста: Дублированный
    Файл
    Кодек для видео: x264
    Качество фильма: BDRip-AVC
    Информация о видео: 1016x432, 23.976 fps, ~1250 kbps
    Информация о звуке #1: AC-3, 6 ch, 448 kbps (Rus)
    Информация о звуке #2: AC-3, 6 ch, 448 kbps (Eng)
    Субтитры: Русские, Английские
    M/I
    General
    Unique ID : 246175104002977233601329951398021952665 (0xB93399B62FC800D7A3E621A53AA1F499)
    Complete name : F: FILMSКуда приводят мечты.(1998).BDRIP_AVC.-=DoMiNo=-.mkv
    Format : Matroska
    Format version : Version 4/Version 2
    File size : 1.71 GiB
    Duration : 1h 53mn
    Overall bit rate : 2 151 Kbps
    Movie name : Rip_-=DoMiNo=-
    Encoded date : UTC 2015-06-21 12: 25: 52
    Writing application : mkvmerge v8.0.0 (;Til The Day That I Die;) 64bit
    Writing library : libebml v1.3.1 + libmatroska v1.4.2
    DURATION : 01: 45: 07.384000000
    NUMBER_OF_FRAMES : 1332
    NUMBER_OF_BYTES : 34287
    _STATISTICS_WRITING_APP : mkvmerge v8.0.0 (;Til The Day That I Die;) 64bit
    _STATISTICS_WRITING_DATE_UT : 2015-06-21 12: 25: 52
    _STATISTICS_TAGS : BPS DURATION NUMBER_OF_FRAMES NUMBER_OF_BYTES
    Video
    ID : 1
    Format : AVC
    Format/Info : Advanced Video Codec
    Format profile : High@L4.1
    Format settings, CABAC : Yes
    Format settings, ReFrames : 12 frames
    Codec ID : V_MPEG4/ISO/AVC
    Duration : 1h 53mn
    Bit rate : 1 212 Kbps
    Width : 1 016 pixels
    Height : 432 pixels
    Display aspect ratio : 2.35: 1
    Frame rate mode : Constant
    Frame rate : 23.976 fps
    Color space : YUV
    Chroma subsampling : 4: 2: 0
    Bit depth : 8 bits
    Scan type : Progressive
    Bits/(Pixel*Frame) : 0.115
    Stream size : 986 MiB (56%)
    Title : Куда приводят мечты_1998
    Writing library : x264 core 146 r2538M 121396c
    Encoding settings : cabac=1/ref=12/deblock=1: -3: -3/analyse=0x3: 0x133/me=umh/subme=10/psy=1/psy_rd=1, 00: 0, 10/mixed_ref=1/me_range=32/chroma_me=1/trellis=2/8x8dct=1/cqm=0/deadzone=21, 11/fast_pskip=0/chroma_qp_offset=-3/threads=12/lookahead_threads=3/sliced_threads=0/nr=0/decimate=1/interlaced=0/bluray_compat=0/constrained_intra=0/bframes=11/b_pyramid=2/b_adapt=2/b_bias=0/direct=1/weightb=1/open_gop=0/weightp=2/keyint=230/keyint_min=23/scenecut=40/intra_refresh=0/rc=crf/mbtree=0/crf=20, 0/qcomp=0, 60/qpmin=20/qpmax=69/qpstep=4/ip_ratio=1, 40/pb_ratio=1, 30/aq=1: 1, 00
    Language : English
    Default : Yes
    Forced : No
    Color range : Limited
    Color primaries : BT.709
    Transfer characteristics : BT.709
    Matrix coefficients : BT.709
    DURATION : 01: 53: 44.068000000
    NUMBER_OF_FRAMES : 163614
    NUMBER_OF_BYTES : 1068354593
    _STATISTICS_WRITING_APP : mkvmerge v8.0.0 (;Til The Day That I Die;) 64bit
    _STATISTICS_WRITING_DATE_UT : 2015-06-21 12: 25: 52
    _STATISTICS_TAGS : BPS DURATION NUMBER_OF_FRAMES NUMBER_OF_BYTES
    Audio #1
    ID : 2
    Format : AC-3
    Format/Info : Audio Coding 3
    Mode extension : CM (complete main)
    Format settings, Endianness : Big
    Codec ID : A_AC3
    Duration : 1h 53mn
    Bit rate mode : Constant
    Bit rate : 448 Kbps
    Channel(s) : 6 channels
    Channel positions : Front: L C R, Side: L R, LFE
    Sampling rate : 48.0 KHz
    Compression mode : Lossy
    Stream size : 364 MiB (21%)
    Title : DUB_AC-3, 6 ch, 448 kbps
    Language : Russian
    Default : Yes
    Forced : No
    DURATION : 01: 53: 42.816000000
    NUMBER_OF_FRAMES : 213213
    NUMBER_OF_BYTES : 382077696
    _STATISTICS_WRITING_APP : mkvmerge v8.0.0 (;Til The Day That I Die;) 64bit
    _STATISTICS_WRITING_DATE_UT : 2015-06-21 12: 25: 52
    _STATISTICS_TAGS : BPS DURATION NUMBER_OF_FRAMES NUMBER_OF_BYTES
    Audio #2
    ID : 3
    Format : AC-3
    Format/Info : Audio Coding 3
    Mode extension : CM (complete main)
    Format settings, Endianness : Big
    Codec ID : A_AC3
    Duration : 1h 53mn
    Bit rate mode : Constant
    Bit rate : 448 Kbps
    Channel(s) : 6 channels
    Channel positions : Front: L C R, Side: L R, LFE
    Sampling rate : 48.0 KHz
    Compression mode : Lossy
    Stream size : 364 MiB (21%)
    Title : Eng_AC-3, 6 ch, 448 kbps
    Language : English
    Default : No
    Forced : No
    Text #1
    ID : 4
    Format : UTF-8
    Codec ID : S_TEXT/UTF8
    Codec ID/Info : UTF-8 Plain Text
    Title : Rus
    Language : Russian
    Default : No
    Forced : No
    Text #2
    ID : 5
    Format : UTF-8
    Codec ID : S_TEXT/UTF8
    Codec ID/Info : UTF-8 Plain Text
    Title : Eng
    Language : English
    Default : No
    Forced : No
    Menu #1
    00: 00: 00.000 : : Chapter 01
    00: 04: 59.632 : : Chapter 02
    00: 07: 43.921 : : Chapter 03
    00: 12: 49.101 : : Chapter 04
    00: 20: 04.870 : : Chapter 05
    00: 24: 35.432 : : Chapter 06
    00: 34: 14.844 : : Chapter 07
    00: 42: 08.192 : : Chapter 08
    00: 51: 35.717 : : Chapter 09
    00: 57: 18.435 : : Chapter 10
    01: 00: 12.942 : : Chapter 11
    01: 04: 32.743 : : Chapter 12
    01: 13: 40.541 : : Chapter 13
    01: 20: 04.257 : : Chapter 14
    01: 23: 17.367 : : Chapter 15
    01: 27: 38.002 : : Chapter 16
    01: 35: 24.009 : : Chapter 17
    01: 43: 37.669 : : Chapter 18
    01: 46: 01.355 : : Chapter 19
    01: 53: 43.566 : : Chapter 20



    Онлайн видео Куда приводят мечты


    Размер скачиваемого торрента: 1.71 GB (1834405104 Bytes)

    Куда приводят мечты/What Dreams May Come (1998) BDRip-AVC | D
    загрузка...
    Рейтинг →
     (голосов: 1, оценка 3/5, голосовать можно 1 раз )

    Другие торренты по теме:

  • Куда приводят мечты / What Dreams May Come (1998) Blu-Ray
  • Куда приводят мечты / What Dreams May Come (1998) BDRip 1080p 60FPS by ZHz
  • Куда приводят мечты / What Dreams May Come (1998) BDRip 1080p от NNNB | D,P,A
  • Куда приводят мечты (Там, где сбываются мечты) / What Dreams May Come / 1998 / ДБ, ПМ, АП (Сербин, Гаврилов, Кашкин), СТ / BDRip (1080p)
  • Куда приводят мечты / What Dreams May Come (1998)


    • Комментарии (0):

      Информация

      Информация

        Посетители, находящиеся в группе Гости, не могут оставлять комментарии в данной новости.

        ↓ Меню



        ↓ Опрос

        А Вы добавили сайт в закладки?
        Да
        Не


        Top 10 за месяц (Фильмы)