.
Авторизация | Регистрация
Хочешь лучшие торренты? Добавь свой email!
Добавить




Натали / Nathalie... (2003) DVD9 | D скачать торрент бесплатно

Опубликовал: Админ | Дата: 21-06-2015, 05:12 | Просмотров: 110



Детально о кино
Русское название: Натали
Русское название в мировом прокате: Nathalie...
Создали в: 2003
Категория жанра: драма
Главный режиссер: Анн Фонтен

Актеры
Фанни Ардан, Эммануэль Беар, Жерар Депардье, Владимир Иорданов, Жюдит Магр, Родольф Поли, Эвелин Дандри, Кристиан Аарон Булонье, Орор Отой, Идит Себюла

Сюжет фильма

Заподозрив мужа в измене, роскошная буржуазная женщина Катрин нанимает проститутку Натали, чтобы та под видом порядочной девушки попыталась соблазнить ее супруга и, если номер пройдет, докладывала бы Катрин все подробности их адюльтера.

Снималось в: Франция, Испания
Киностудия: Canal+ fr, DD Productions, France 2 Cin?ma, V?rtigo Films S.L.
Время просмотра: 101 мин./01: 41
Перевод текста: полное дублирование
Файл
Кодек для видео: MPEG2
Качество фильма: DVD9 West Video
Информация о видео: PAL 16: 9 (720x576@1024x576) CBR 6000 Kbps, 25.000 fps
Информация о звуке 1: Dolby AC3, 6 ch, 48.0 KHz, 384 Kbps (русский, французский)
Информация о звуке 2: DTS 6 ch, 48.0 KHz, 768 Kbps (русский)
Субтитры: русские
MediaInfo
Общее
Полное имя : D: NataliVIDEO_TSVTS_02_1.VOB
Формат : MPEG-PS
Размер файла : 1024 Мбайт
Продолжительность : 18 м.
Общий поток : 7663 Кбит/сек
Видео
Идентификатор : 224 (0xE0)
Формат : MPEG Video
Версия формата : Version 2
Профиль формата : Main@Main
Параметр BVOP формата : Да
Параметр матрицы формата : По умолчанию
Параметр GOP формата : M=3, N=15
Структура изображения : Frame
Продолжительность : 18 м.
Битрейт : 6000 Кбит/сек
Ширина : 720 пикселей
Высота : 576 пикселей
Соотношение сторон : 16: 9
Частота кадров : 25, 000 кадров/сек
Стандарт вещания : PAL
Цветовое пространство : YUV
Субдискретизация насыщенности : 4: 2: 0
Битовая глубина : 8 бит
Тип развёртки : Чересстрочная
Порядок развёртки : Верхнее поле первое
Метод сжатия : С потерями
Бит/(Пиксели*Кадры) : 0.579
Временной код первого кадра : 09: 59: 59: 07
Оригинал временного кода : Group of pictures t_head
GOP, открыто/закрыто : Открыто
Размер потока : 800 Мбайт (78%)
Основные цвета : BT.601 PAL
Характеристики трансфера : BT.470 System B, BT.470 System G
Коэффициенты матрицы : BT.601
Аудио #1
Идентификатор : 189 (0xBD)-128 (0x80)
Формат : AC-3
Формат/Информация : Audio Coding 3
Расширение режима : CM (complete main)
Параметр Endianness формата : Big
Режим смешивания : DVD-Video
Продолжительность : 18 м.
Вид битрейта : Постоянный
Битрейт : 384 Кбит/сек
Каналы : 6 каналов
Расположение каналов : Front: L C R, Side: L R, LFE
Частота : 48, 0 КГц
Метод сжатия : С потерями
Задержка видео : -80 мс.
Размер потока : 51, 3 Мбайт (5%)
Аудио #2
Идентификатор : 189 (0xBD)-130 (0x82)
Формат : AC-3
Формат/Информация : Audio Coding 3
Расширение режима : CM (complete main)
Параметр Endianness формата : Big
Режим смешивания : DVD-Video
Продолжительность : 18 м.
Вид битрейта : Постоянный
Битрейт : 384 Кбит/сек
Каналы : 6 каналов
Расположение каналов : Front: L C R, Side: L R, LFE
Частота : 48, 0 КГц
Метод сжатия : С потерями
Задержка видео : -80 мс.
Размер потока : 51, 3 Мбайт (5%)
Аудио #3
Идентификатор : 189 (0xBD)-137 (0x89)
Формат : DTS
Формат/Информация : Digital Theater Systems
Режим : 16
Параметр Endianness формата : Big
Режим смешивания : DVD-Video
Продолжительность : 18 м.
Вид битрейта : Постоянный
Битрейт : 755 Кбит/сек
Каналы : 6 каналов
Расположение каналов : Front: L C R, Side: L R, LFE
Частота : 48, 0 КГц
Битовая глубина : 24 бит
Метод сжатия : С потерями
Задержка видео : -80 мс.
Размер потока : 101 Мбайт (10%)
Текст
Идентификатор : 189 (0xBD)-32 (0x20)
Формат : RLE
Формат/Информация : Run-length encoding
Режим смешивания : DVD-Video
Меню
Скриншоты


Залил: carisha

Онлайн видео Натали


Размер скачиваемого торрента: 6.81 GB (7308011520 Bytes)

Натали/Nathalie... (2003) DVD9 | D
загрузка...
Рейтинг →
 (голосов: 1, оценка 4/5, голосовать можно 1 раз )

Другие торренты по теме:

  • Русские сенсации. Натали. Хит сезона (2013) SATRip
  • Натали / Nathalie (2003) DVDRip-AVC от MediaClub
  • Загадка Натали Вуд / The Mystery of Natalie Wood (2004) DVDRip-AVC от Temperest
  • Натали - MP3 Play (2014) MP3 скачать через торрент бесплатно
  • Натали - Шахерезада (2014) MP3 скачать через торрент бесплатно
  • Натали - Платье на бретелях NEW скачать через торрент бесплатно
  • Натали / Nathalie (1957) DVDRip | SATKUR
  • Натали в нацистском аду / Nathalie rescape de lenfer / Nathalie: Escape from Hell (1978) DVDRip от KinoRay Sheikn | A


    • Комментарии (0):

      Информация

      Информация

        Посетители, находящиеся в группе Гости, не могут оставлять комментарии в данной новости.

        ↓ Меню



        ↓ Опрос

        А Вы добавили сайт в закладки?
        Да
        Не


        Top 10 за месяц (Фильмы)