.
Авторизация | Регистрация
Хочешь лучшие торренты? Добавь свой email!
Добавить
» » Французский транзит / La French (2014) BDRip 1080p | D скачать торрент бесплатно




    Французский транзит / La French (2014) BDRip 1080p | D скачать торрент бесплатно

    Опубликовал: Админ | Дата: 20-06-2015, 05:06 | Просмотров: 116



    Детально о кино
    Русское название: Французский транзит
    Русское название в мировом прокате: La French
    Создали в: 2014
    Категория жанра: Боевик, триллер, криминал
    Снималось в: Франция, Бельгия, Gaumont, Legende Films, France 2 Cin?ma
    Главный режиссер: Седрик Хименес

    Актеры
    Жан Дюжарден, Жиль Леллуш, Селин Саллетт, Мелани Дотей, Бенуа Мажимель, Гийом Гуи, Бруно Тодескини, Федор Аткин, Мусса Мааскри, Пьер Лопез

    Сюжет фильма
    Реальная история преступного синдиката Французский связной, свирепствующего в 70-х годах. Подпольная организация была особенно известна международным трафиком героина. Марсель. 1975 год. Молодой Пьер Мишель вместе с женой и детьми переезжает из Меца и назначается судьёй по особо тяжким преступлениям. Он решает разобраться с мафиозной сетью, два десятилетия снабжающей улицы США и всего мира героином под руководством знаковой фигуры криминальной сферы и неприкосновенного крёстного отца безжалостного Гаэтана Зампы. Но он быстро понимает, что для получения результатов ему придётся поменять свои методы.
    Файл
    Качество фильма: BDRip (1080p)
    Информация о видео: MPEG-4 AVC, 18700 Кбит/с, 1920x800
    Информация о звуке: Русский (AC3, 6 ch, 448 Кбит/с), украинский (AC3, 2 ch, 192 Кбит/с), французский (AC3, 6 ch, 640 Кбит/с)
    Размер скачиваемого торрента: 18.88 ГБ
    Время просмотра: 02: 15: 36
    Перевод текста: Дублированный IPTV snx.BLUEBIRD
    MI
    Общее
    Уникальный идентификатор : 173119269886734333043105883458337827803 (0x823D8EFF43C9D2D6B8F319BB43BCEBDB)
    Полное имя : C: La.French.2014.1080p.BluRay.x264.WiKi.mkv
    Формат : Matroska
    Версия формата : Version 2
    Размер файла : 18, 9 Гбайт
    Продолжительность : 2 ч. 15 м.
    Общий поток : 20, 0 Мбит/сек
    Дата кодирования : UTC 2015-06-19 07: 14: 58
    Программа кодирования : mkvmerge v7.9.0 (;Birds;) 64bit
    Библиотека кодирования : libebml v1.3.1 + libmatroska v1.4.2
    DURATION : 02: 15: 18.720000000
    NUMBER_OF_FRAMES : 253710
    NUMBER_OF_BYTES : 649497600
    _STATISTICS_WRITING_APP : mkvmerge v7.0.0 (;Where We Going;) 32bit built on Jun 9 2014 15: 08: 34
    _STATISTICS_WRITING_DATE_UTC : 2015-04-18 00: 16: 28
    _STATISTICS_TAGS : BPS DURATION NUMBER_OF_FRAMES NUMBER_OF_BYTES
    Видео
    Идентификатор : 1
    Формат : AVC
    Формат/Информация : Advanced Video Codec
    Профиль формата : High@L4.1
    Параметр CABAC формата : Да
    Параметр ReFrames формата : 5 кадров
    Идентификатор кодека : V_MPEG4/ISO/AVC
    Продолжительность : 2 ч. 15 м.
    Битрейт : 18, 7 Мбит/сек
    Ширина : 1920 пикселей
    Высота : 800 пикселей
    Соотношение сторон : 2, 40: 1
    Режим частоты кадров : Постоянный
    Частота кадров : 24, 000 кадра/сек
    Цветовое пространство : YUV
    Субдискретизация насыщенности : 4: 2: 0
    Битовая глубина : 8 бит
    Тип развёртки : Прогрессивная
    Бит/(Пиксели*Кадры) : 0.507
    Размер потока : 17, 3 Гбайт (92%)
    Библиотека кодирования : x264 core 142 r2479 dd79a61
    Настройки программы : cabac=1/ref=5/deblock=1: -3: -3/analyse=0x3: 0x133/me=umh/subme=11/psy=1/psy_rd=1.10: 0.10/mixed_ref=1/me_range=48/chroma_me=1/trellis=2/8x8dct=1/cqm=0/deadzone=21, 11/fast_pskip=0/chroma_qp_offset=-3/threads=12/lookahead_threads=2/sliced_threads=0/nr=0/decimate=1/interlaced=0/bluray_compat=0/constrained_intra=0/bframes=8/b_pyramid=2/b_adapt=2/b_bias=0/direct=3/weightb=1/open_gop=0/weightp=2/keyint=250/keyint_min=24/scenecut=40/intra_refresh=0/rc_lookahead=80/rc=2pass/mbtree=1/bitrate=18700/ratetol=1.0/qcomp=0.75/qpmin=0/qpmax=69/qpstep=4/cplxblur=20.0/qblur=0.5/vbv_maxrate=38000/vbv_bufsize=30000/nal_hrd=none/filler=0/ip_ratio=1.40/aq=1: 0.70
    Язык : English
    Default : Да
    Forced : Нет
    Аудио #1
    Идентификатор : 2
    Формат : AC-3
    Формат/Информация : Audio Coding 3
    Расширение режима : CM (complete main)
    Параметр Endianness формата : Big
    Идентификатор кодека : A_AC3
    Продолжительность : 2 ч. 15 м.
    Вид битрейта : Постоянный
    Битрейт : 448 Кбит/сек
    Каналы : 6 каналов
    Расположение каналов : Front: L C R, Side: L R, LFE
    Частота : 48, 0 КГц
    Метод сжатия : С потерями
    Размер потока : 434 Мбайт (2%)
    Заголовок : IPTV
    Язык : Russian
    Default : Да
    Forced : Нет
    Аудио #2
    Идентификатор : 3
    Формат : AC-3
    Формат/Информация : Audio Coding 3
    Профиль формата : Dolby Digital
    Расширение режима : CM (complete main)
    Параметр Endianness формата : Big
    Идентификатор кодека : A_AC3
    Продолжительность : 2 ч. 15 м.
    Вид битрейта : Постоянный
    Битрейт : 192 Кбит/сек
    Каналы : 2 канала
    Расположение каналов : Front: L R
    Частота : 48, 0 КГц
    Метод сжатия : С потерями
    Размер потока : 186 Мбайт (1%)
    Язык : Ukrainian
    Default : Нет
    Forced : Нет
    Аудио #3
    Идентификатор : 4
    Формат : AC-3
    Формат/Информация : Audio Coding 3
    Расширение режима : CM (complete main)
    Параметр Endianness формата : Big
    Идентификатор кодека : A_AC3
    Продолжительность : 2 ч. 15 м.
    Вид битрейта : Постоянный
    Битрейт : 640 Кбит/сек
    Каналы : 6 каналов
    Расположение каналов : Front: L C R, Side: L R, LFE
    Частота : 48, 0 КГц
    Метод сжатия : С потерями
    Размер потока : 619 Мбайт (3%)
    Заголовок : french
    Язык : French
    Default : Нет
    Forced : Нет
    Меню
    00: 00: 00.000 : en: 00: 00: 00.000
    00: 11: 01.458 : en: 00: 11: 01.458
    00: 21: 07.167 : en: 00: 21: 07.167
    00: 32: 10.417 : en: 00: 32: 10.417
    00: 43: 32.417 : en: 00: 43: 32.417
    00: 56: 18.875 : en: 00: 56: 18.875
    01: 06: 47.042 : en: 01: 06: 47.042
    01: 15: 40.000 : en: 01: 15: 40.000
    01: 28: 48.708 : en: 01: 28: 48.708
    01: 40: 26.500 : en: 01: 40: 26.500
    01: 55: 01.167 : en: 01: 55: 01.167
    02: 03: 22.625 : en: 02: 03: 22.625

    Скриншоты




    Онлайн видео Французский транзит


    Размер скачиваемого торрента: 18.88 GB (20267403856 Bytes)

    Французский транзит/La French (2014) BDRip 1080p | D
    загрузка...
    Рейтинг →
     (голосов: 1, оценка 3/5, голосовать можно 1 раз )

    Другие торренты по теме:

  • Французский транзит (2014) HDRip
  • Французский транзит / La French (2014) HDRip | Звук с TS
  • Французский транзит / La French (2014) HDRip | Звук с TS
  • Французский транзит / La French (2014) HDRip | Чистый звук
  • Французский транзит / La French (2014) HDRip | Чистый звук
  • Французский транзит / La French (2014) HDRip-AVC от ExKinoRay | Чистый звук
  • Французский транзит / La French (2014) HDRip от Scarabey | Чистый звук
  • Французский транзит / La French (2014) HDRip от Scarabey | Чистый звук


    • Комментарии (0):

      Информация

      Информация

        Посетители, находящиеся в группе Гости, не могут оставлять комментарии в данной новости.

        ↓ Меню



        ↓ Опрос

        А Вы добавили сайт в закладки?
        Да
        Не


        Top 10 за месяц (Фильмы)