.
Авторизация | Регистрация
Хочешь лучшие торренты? Добавь свой email!
Добавить
» » Мальчик с окраины (1947) DVDRip от New-Team скачать торрент бесплатно




    Мальчик с окраины (1947) DVDRip от New-Team скачать торрент бесплатно

    Опубликовал: Админ | Дата: 20-06-2015, 05:04 | Просмотров: 127



    Снималось в: СССР
    Создали в: Союздетфильм
    Категория жанра: драма
    Создали в: 1947
    Время просмотра: 1: 21: 49
    Перевод текста: Не требуется
    Субтитры подготовлены: нет
    Оригинальная аудиодорожка: русский
    Главный режиссер: Василий Журавлев

    Актеры

    Евгений Самойлов, Сергей Лукьянов, Татьяна Окуневская, Майя Маркова, Юрий Любимов, Александр Зражевский. Николай Анненков. Борис Пославский, Николай Боголюбов, Анатолий Ганичев...
    Описание:
    В семье машиниста Скворцова на одной из окраин Москвы растет сын Андрей, будущий конструктор сверхскоростного огнестрельного орудия, а пока — любознательный и работящий парнишка, мечтающий об учебе. Впереди годы революции и Великая Отечественная…



    Источник: DVD5 R5
    Качество фильма видео: DVDRip
    Тип видео видео: AVI
    Информация о видео: 640x480 (4: 3), 25 fps, XviD ~ 1136 kbps avg, 0.148 bit/pixel
    Информация о звуке: 48 kHz, MP3 2.0, 128 kbps
    Раздача от:
    MediaInfo

    Общее
    Полное имя : Malchik.s.okrainyi.1947.DVDRip-745_New-team_by_AVP_Studio.avi
    Формат : AVI
    Формат/Информация : Audio Video Interleave
    Размер файла : 745 Мбайт
    Продолжительность : 1 ч. 21 м.
    Общий поток : 1274 Кбит/сек
    Программа кодирования : VirtualDubModRus 1.5.10.2 (build 2542/release)
    Библиотека кодирования : VirtualDubMod build 2542/release
    Видео
    Идентификатор : 0
    Формат : MPEG-4 Visual
    Профиль формата : Advanced Simple@L5
    Параметр BVOP формата : 1
    Параметр QPel формата : Нет
    Параметр GMC формата : Без точки перехода
    Параметр матрицы формата : Выборочная
    Идентификатор кодека : XVID
    Идентификатор кодека/Подсказка : XviD
    Продолжительность : 1 ч. 21 м.
    Битрейт : 1136 Кбит/сек
    Ширина : 640 пикселей
    Высота : 480 пикселей
    Соотношение сторон : 4: 3
    Частота кадров : 25, 000 кадров/сек
    Цветовое пространство : YUV
    Субдискретизация насыщенности : 4: 2: 0
    Битовая глубина : 8 бит
    Тип развёртки : Прогрессивная
    Метод сжатия : С потерями
    Бит/(Пиксели*Кадры) : 0.148
    Размер потока : 665 Мбайт (89%)
    Библиотека кодирования : XviD 73
    Аудио
    Идентификатор : 1
    Формат : MPEG Audio
    Версия формата : Version 1
    Профиль формата : Layer 3
    Идентификатор кодека : 55
    Идентификатор кодека/Подсказка : MP3
    Продолжительность : 1 ч. 21 м.
    Вид битрейта : Постоянный
    Битрейт : 128 Кбит/сек
    Каналы : 2 канала
    Частота : 48, 0 КГц
    Метод сжатия : С потерями
    Размер потока : 74, 9 Мбайт (10%)
    Выравнивание : Соединение по промежуткам
    Продолжительность промежутка : 40 мс. (1, 00 видеокадр)
    Время предзагрузки промежутка : 504 мс.
    Библиотека кодирования : LAME3.99r
    Залил: AVPStudio

    Онлайн видео Мальчик с окраины (1947) DVDRip от New


    Размер скачиваемого торрента: 745.30 MB (781500416 Bytes)


    Мальчик с окраины (1947) DVDRip от New-Team
    загрузка...
    Рейтинг →
     (голосов: 1, оценка 3/5, голосовать можно 1 раз )

    Другие торренты по теме:

  • Мальчик с велосипедом / Le Gamin au vlo (2011) BDRemux от Temperest
  • Мальчик с окраины (1947) DVDRip от New-Team
  • Мальчик с окраины (1947) DVDRip-AVC от New-Team


    • Комментарии (0):

      Информация

      Информация

        Посетители, находящиеся в группе Гости, не могут оставлять комментарии в данной новости.

        ↓ Меню



        ↓ Опрос

        А Вы добавили сайт в закладки?
        Да
        Не


        Top 10 за месяц (Фильмы)