.
Авторизация | Регистрация
Хочешь лучшие торренты? Добавь свой email!
Добавить
» » Оптом дешевле 2 / Cheaper by the Dozen 2 (2005) BDRip 720p от HDClub | D скачать торрент бесплатно




    Оптом дешевле 2 / Cheaper by the Dozen 2 (2005) BDRip 720p от HDClub | D скачать торрент бесплатно

    Опубликовал: Админ | Дата: 19-06-2015, 05:10 | Просмотров: 61



    Детально о кино
    Русское название: Оптом дешевле 2
    Русское название в мировом прокате: Cheaper by the Dozen 2
    Создали в: 2005
    Категория жанра: комедия, приключения, семейный
    Главный режиссер: Адам Шенкман/Adam Shankman/

    Актеры
    Стив Мартин/Steve Martin/ , Юджин Леви/Eugene Levy/ , Бонни Хант/Bonnie Hunt/ , Том Уэллинг/Tom Welling/ , Пайпер Перабо/Piper Perabo/ , Кармен Электра/Carmen Electra/ , Джейми Кинг/Jaime King/ , Хилари Дафф/Hilary Duff/ , Тэйлор Лотнер/Taylor Lautner/ , Элисон Стоунер/Alyson Stoner/ и др.

    Сюжет фильма

    Много — не мало. Детишки растут, а проблем не убывает. И все бы хорошо, если бы на отдыхе семейство Бейкеров не повстречалось с таким же многочисленным семейством Муртахов…

    Снималось в: США
    Студии: 20th Century Fox Film Corporation/21 Laps Entertainment/Dozen Canada Productions
    Время просмотра: 01: 33: 54
    Перевод текста:
    Профессиональный (дублированный) -студия Невафильм
    Профессиональный (дублированныйукраинский )
    Релиз подготовил: by marchelush
    Рип от ThD!
    Файл
    Кодек для видео: H.264
    Качество фильма: BDRip 720p
    Информация о видео: 1280x544 at 23.976 fps, x264@L4.1, crf, ~5820 Kbps
    Информация о звуке#1: Russian: 48 kHz, AC3, 3/2 (L, C, R, l, r) + LFE ch, ~384.00 kbps avg |Дублированный, студия Невафильм |
    Информация о звуке#2: Ukrainian: 48 kHz, AC3, 2/0 (L, R) ch, ~192.00 kbps avg |Дублированный|
    Информация о звуке#3: English: 48 kHz, DTS, 3/2 (L, C, R, l, r) + LFE ch, ~1509.00 kbps avg |Оригинал|
    Субтитры: Russian (Full), English (SDH)
    Скриншоты

    MediaInfo
    General
    Complete name : Cheaper.by.the.Dozen.2.2005.720p.BluRay.Rus.Ukr.Eng.Subs-HDCLUB.mkv
    Format : Matroska
    Format version : Version 4/Version 2
    File size : 5.29 GiB
    Duration : 1h 33mn
    Overall bit rate : 8 066 Kbps
    Encoded date : UTC 2015-06-14 16: 26: 39
    Writing application : mkvmerge v6.3.0 (;You can;t stop me!;) built on Jun 28 2013 20: 09: 41
    Writing library : libebml v1.3.0 + libmatroska v1.4.0
    Video
    ID : 1
    Format : AVC
    Format/Info : Advanced Video Codec
    Format profile : High@L4.1
    Format settings, CABAC : Yes
    Format settings, ReFrames : 12 frames
    Codec ID : V_MPEG4/ISO/AVC
    Duration : 1h 33mn
    Bit rate : 5 820 Kbps
    Width : 1 280 pixels
    Height : 544 pixels
    Display aspect ratio : 2.35: 1
    Frame rate mode : Constant
    Frame rate : 23.976 fps
    Color space : YUV
    Chroma subsampling : 4: 2: 0
    Bit depth : 8 bits
    Scan type : Progressive
    Bits/(Pixel*Frame) : 0.349
    Stream size : 3.82 GiB (72%)
    Writing library : x264 core 142 r2453kMod ea0ca51
    Encoding settings : cabac=1/ref=12/deblock=1: -3: -3/analyse=0x3: 0x133/me=umh/subme=9/psy=1/fade_compensate=0.00/psy_rd=1.05: 0.00/mixed_ref=1/me_range=24/chroma_me=1/trellis=2/8x8dct=1/cqm=0/deadzone=21, 11/fast_pskip=0/chroma_qp_offset=-2/threads=36/lookahead_threads=4/sliced_threads=0/nr=0/decimate=0/interlaced=0/bluray_compat=0/constrained_intra=0/fgo=0/bframes=8/b_pyramid=2/b_adapt=2/b_bias=0/direct=3/weightb=1/open_gop=0/weightp=2/keyint=250/keyint_min=23/scenecut=40/intra_refresh=0/rc=crf/mbtree=0/crf=17.0000/qcomp=0.65/qpmin=0/qpmax=69/qpstep=4/ip_ratio=1.40/pb_ratio=1.25/aq=3: 0.80
    Language : English
    Default : Yes
    Forced : No
    Audio #1
    ID : 2
    Format : AC-3
    Format/Info : Audio Coding 3
    Mode extension : CM (complete main)
    Format settings, Endianness : Big
    Codec ID : A_AC3
    Duration : 1h 33mn
    Bit rate mode : Constant
    Bit rate : 384 Kbps
    Channel(s) : 6 channels
    Channel positions : Front: L C R, Side: L R, LFE
    Sampling rate : 48.0 KHz
    Compression mode : Lossy
    Stream size : 258 MiB (5%)
    Title : Дубляж
    Language : Russian
    Default : Yes
    Forced : No
    Audio #2
    ID : 3
    Format : AC-3
    Format/Info : Audio Coding 3
    Mode extension : CM (complete main)
    Format settings, Endianness : Big
    Codec ID : A_AC3
    Duration : 1h 33mn
    Bit rate mode : Constant
    Bit rate : 192 Kbps
    Channel(s) : 2 channels
    Channel positions : Front: L R
    Sampling rate : 48.0 KHz
    Compression mode : Lossy
    Stream size : 129 MiB (2%)
    Title : Дубляж
    Language : Ukrainian
    Default : No
    Forced : No
    Audio #3
    ID : 4
    Format : DTS
    Format/Info : Digital Theater Systems
    Mode : 16
    Format settings, Endianness : Big
    Codec ID : A_DTS
    Duration : 1h 33mn
    Bit rate mode : Constant
    Bit rate : 1 510 Kbps
    Channel(s) : 6 channels
    Channel positions : Front: L C R, Side: L R, LFE
    Sampling rate : 48.0 KHz
    Bit depth : 24 bits
    Compression mode : Lossy
    Stream size : 1 014 MiB (19%)
    Language : English
    Default : No
    Forced : No
    Text #1
    ID : 5
    Format : UTF-8
    Codec ID : S_TEXT/UTF8
    Codec ID/Info : UTF-8 Plain Text
    Language : Russian
    Default : No
    Forced : No
    Text #2
    ID : 6
    Format : UTF-8
    Codec ID : S_TEXT/UTF8
    Codec ID/Info : UTF-8 Plain Text
    Language : English
    Default : No
    Forced : No
    Menu
    00: 00: 00.000 : en: 00: 00: 00.000
    00: 02: 53.382 : en: 00: 02: 53.382
    00: 06: 18.336 : en: 00: 06: 18.336
    00: 09: 18.600 : en: 00: 09: 18.600
    00: 11: 50.209 : en: 00: 11: 50.209
    00: 13: 22.719 : en: 00: 13: 22.719
    00: 18: 37.366 : en: 00: 18: 37.366
    00: 21: 30.706 : en: 00: 21: 30.706
    00: 23: 46.717 : en: 00: 23: 46.717
    00: 26: 13.155 : en: 00: 26: 13.155
    00: 31: 16.208 : en: 00: 31: 16.208
    00: 36: 30.980 : en: 00: 36: 30.980
    00: 41: 37.745 : en: 00: 41: 37.745
    00: 45: 24.805 : en: 00: 45: 24.805
    00: 50: 37.159 : en: 00: 50: 37.159
    00: 54: 07.494 : en: 00: 54: 07.494
    00: 58: 38.849 : en: 00: 58: 38.849
    01: 03: 25.760 : en: 01: 03: 25.760
    01: 07: 59.033 : en: 01: 07: 59.033
    01: 10: 01.155 : en: 01: 10: 01.155
    01: 12: 30.096 : en: 01: 12: 30.096
    01: 14: 41.394 : en: 01: 14: 41.394
    01: 17: 39.280 : en: 01: 17: 39.280
    01: 19: 55.791 : en: 01: 19: 55.791
    01: 23: 48.857 : en: 01: 23: 48.857
    01: 25: 01.596 : en: 01: 25: 01.596
    01: 27: 22.863 : en: 01: 27: 22.863
    01: 28: 53.495 : en: 01: 28: 53.495
    Дополнительная информация
    Цитата Кто-тописал:
    Сохранены оригинальные главы как на Blu-ray.


    Онлайн видео Оптом дешевле 2


    Размер скачиваемого торрента: 5.29 GB (5680898010 Bytes)

    Оптом дешевле 2/Cheaper by the Dozen 2 (2005) BDRip 720p от HDClub | D
    загрузка...
    Рейтинг →
     (голосов: 1, оценка 4/5, голосовать можно 1 раз )

    Другие торренты по теме:

  • Оптом дешевле 2 / Cheaper by the Dozen 2 (2005) HDRip от Youtracker | D
  • Оптом дешевле / Cheaper by the Dozen (2003) WEB-DL 1080p от HDClub | D, P
  • Оптом дешевле / Cheaper by the Dozen (2003) WEB-DLRip-AVC от New-Team | D
  • Оптом дешевле / Cheaper by the Dozen (2003) WEB-DLRip-AVC от New-Team | D
  • Оптом дешевле 2 / Cheaper by the Dozen 2 (2005) BDRip AVC
  • Оптом дешевле 2 / Cheaper by the Dozen 2 (2005) BDRip 720p
  • Оптом дешевле 2 / Cheaper by the Dozen 2 (2005) BDRip 1080p


    • Комментарии (0):

      Информация

      Информация

        Посетители, находящиеся в группе Гости, не могут оставлять комментарии в данной новости.

        ↓ Меню



        ↓ Опрос

        А Вы добавили сайт в закладки?
        Да
        Не


        Top 10 за месяц (Фильмы)