.
Авторизация | Регистрация
Хочешь лучшие торренты? Добавь свой email!
Добавить
» » Из темноты / Out of the Dark (2014) HDRip-AVC | L2 скачать торрент бесплатно




    Из темноты / Out of the Dark (2014) HDRip-AVC | L2 скачать торрент бесплатно

    Опубликовал: Админ | Дата: 18-06-2015, 05:10 | Просмотров: 85




    Русское название: Из темноты
    Русское название в мировом прокате: Out of the Dark
    Создали в: 2014
    Категория жанра: Ужасы, триллер
    Снималось в: США, Колумбия, Испания, Apaches Entertainment, Cactus Flower Producciones, Dynamo, Fast Producciones, Imagenation Abu Dhabi FZ, Participant Media, XYZ Films
    Время просмотра: 01: 33: 28
    Перевод текста: Любительский двухголосый DeadSno den904, перевод Антонио
    Субтитры: отсутствуют
    Главный режиссер: Йуис Килес

    Актеры
    Джулия Стайлз, Скотт Спидман, Фрэнк Куерво, Пикси Дейвис, Алехандро Ферт, Стивен Ри, Ванеса Тамайо, Гильермо Моралес Витола

    Сюжет фильма
    Пара со своей дочерью переезжают в Колумбию, чтобы заняться делами их семейного обрабатывающего предприятия, но скоро они узнают, что их новый дом населен привидениями…

    Качество фильма: HDRip-AVC
    Информация о видео: AVC, 1024x428 (2.35: 1), 23.976 fps, 1 786 Kbps (0.170 bit/pixel)
    Информация о звуке: AC-3, 48.0 KHz, 6 ch, 448 Kbps, CBR
    Релиз подготовил: FAGOT100
    MediaInfo:
    Формат : Matroska
    Версия формата : Version 2
    Размер файла : 1, 45 Гбайт
    Продолжительность : 1 ч. 33 м.
    Общий поток : 2227 Кбит/сек
    Дата кодирования : UTC 2015-06-17 20: 01: 58
    Программа кодирования : mkvmerge v5.3.0 (;I could have danced;) built on Feb 9 2012 10: 38: 07
    Библиотека кодирования : libebml v1.2.3 + libmatroska v1.3.0
    Attachment : Yes
    Видео
    Идентификатор : 1
    Формат : AVC
    Формат/Информация : Advanced Video Codec
    Профиль формата : High@L4.1
    Параметр CABAC формата : Да
    Параметр ReFrames формата : 10 кадров
    Идентификатор кодека : V_MPEG4/ISO/AVC
    Продолжительность : 1 ч. 33 м.
    Битрейт : 1786 Кбит/сек
    Ширина : 1024 пикселя
    Высота : 428 пикселей
    Соотношение сторон : 2, 40: 1
    Режим частоты кадров : Постоянный
    Частота кадров : 23, 976 кадра/сек
    Цветовое пространство : YUV
    Субдискретизация насыщенности : 4: 2: 0
    Битовая глубина : 8 бит
    Тип развёртки : Прогрессивная
    Бит/(Пиксели*Кадры) : 0.170
    Размер потока : 1, 13 Гбайт (78%)
    Библиотека кодирования : x264 core 146 r2538 121396c
    Настройки программы : cabac=1/ref=10/deblock=1: -2: -2/analyse=0x3: 0x133/me=umh/subme=10/psy=1/psy_rd=1.00: 0.00/mixed_ref=1/me_range=32/chroma_me=1/trellis=2/8x8dct=1/cqm=0/deadzone=21, 11/fast_pskip=1/chroma_qp_offset=-2/threads=12/lookahead_threads=2/sliced_threads=0/nr=0/decimate=0/interlaced=0/bluray_compat=0/constrained_intra=0/bframes=8/b_pyramid=2/b_adapt=2/b_bias=0/direct=3/weightb=1/open_gop=0/weightp=2/keyint=240/keyint_min=23/scenecut=40/intra_refresh=0/rc=2pass/mbtree=0/bitrate=1786/ratetol=1.0/qcomp=0.60/qpmin=0/qpmax=69/qpstep=4/cplxblur=20.0/qblur=0.5/ip_ratio=1.40/pb_ratio=1.30/aq=1: 1.00
    Язык : English
    Default : Да
    Forced : Нет
    Аудио
    Идентификатор : 2
    Формат : AC-3
    Формат/Информация : Audio Coding 3
    Расширение режима : CM (complete main)
    Параметр Endianness формата : Big
    Идентификатор кодека : A_AC3
    Продолжительность : 1 ч. 33 м.
    Вид битрейта : Постоянный
    Битрейт : 448 Кбит/сек
    Каналы : 6 каналов
    Расположение каналов : Front: L C R, Side: L R, LFE
    Частота : 48, 0 КГц
    Битовая глубина : 16 бит
    Метод сжатия : С потерями
    Размер потока : 300 Мбайт (20%)
    Default : Да
    Forced : Нет
    Текст
    Идентификатор : 3
    Формат : UTF-8
    Идентификатор кодека : S_TEXT/UTF8
    Идентификатор кодека/Информация : UTF-8 Plain Text
    Default : Да
    Forced : Нет
    Скриншоты



    Онлайн видео Из темноты


    Размер скачиваемого торрента: 1.45 GB (1561237806 Bytes)

    Из темноты/Out of the Dark (2014) HDRip-AVC | L2
    загрузка...
    Рейтинг →
     (голосов: 1, оценка 4/5, голосовать можно 1 раз )

    Другие торренты по теме:

  • Злоумышленники / Те, кто приходят из темноты / Intruders скачать через торрент бесплатно
  • Из темноты / Out of the Dark (2014) HDRip | L2
  • Из темноты / Out of the Dark (2014) HDRip | L2
  • Из темноты / From the Dark (2014) BDRip 720p | L2
  • Из темноты / Out of the Dark (2014) BDRip 1080p | L2


    • Комментарии (0):

      Информация

      Информация

        Посетители, находящиеся в группе Гости, не могут оставлять комментарии в данной новости.

        ↓ Меню



        ↓ Опрос

        А Вы добавили сайт в закладки?
        Да
        Не


        Top 10 за месяц (Фильмы)