.
Авторизация | Регистрация
Хочешь лучшие торренты? Добавь свой email!
Добавить
» » Золушка / Cinderella (2015) WEB-DLRip-AVC от Scarabey | Чистый звук скачать торрент бесплатно




    Золушка / Cinderella (2015) WEB-DLRip-AVC от Scarabey | Чистый звук скачать торрент бесплатно

    Опубликовал: Админ | Дата: 18-06-2015, 05:09 | Просмотров: 109



    Создали в: 2015
    Снималось в: США, Великобритания
    Категория жанра: фэнтези, драма, мелодрама, семейный
    Время просмотра: 01: 45: 20
    Перевод текста: Профессиональный (полное дублирование) Чистый звук
    Примечание: Присутствуют 6 минутвставок звука с TS
    Субтитры подготовлены: нет
    Главный режиссер: Кеннет Брана/Kenneth Branagh

    Актеры
    Лили Джеймс, Кейт Бланшетт, Ричард Мэдден, Хелена Бонем Картер , Нонсо Анози, Стеллан Скарсгард, Софи МакШера, Холлидей Грейнджер, Дерек Джекоби, Бен Чаплин

    Описание фильма
    Отец молодой девушки по имени Элла, овдовев, женится во второй раз, и вскоре Элла оказывается один на один с жадными и завистливыми новыми родственницами — мачехой Леди Тремэйн и ее дочерьми — Анастасией и Дризеллой. Из хозяйки дома она превращается в служанку, вечно испачканную золой, за что и получает от своих сварливых сводных сестриц прозвище — Золушка. Несмотря на злоключения, выпавшие на ее долю, Золушка не отчаивается, ведь даже в самые тяжелые моменты находится что-то, что помогает ей думать о хорошем: например, случайная встреча на лесной тропинке с прекрасным юношей. Элла даже не предполагает, что встретилась с самим принцем, и что вскоре Фея-крестная навсегда поменяет её жизнь к лучшему.
    Качество фильма видео: WEB-DLRip-AVC
    Тип видео видео: AVI
    Информация о видео: 1024Х432, 23.976 fps, AVC, ~2500 kbps avg, 0.236 bit/pixel
    Информация о звуке: 48 kHz, AC3 Dolby Digital, 2/0 (L, R) ch, ~128 kbps
    Релиз подготовил:
    АНОНСЫ МОИХ РАЗДАЧ!


    МедиаИнфо
    ЗолушкаZolushka.2015_AVC_WEB-DLRip_scarabey.org.mkv
    Format : Matroska
    Format version : Version 2
    File size : 1.93 GiB
    Duration : 1h 45mn
    Overall bit rate : 2 630 Kbps
    Encoded date : UTC 2015-06-16 15: 47: 38
    Writing application : mkvmerge v6.1.0 (;Old Devil;) built on Mar 4 2013 09: 10: 42
    Writing library : libebml v1.3.0 + libmatroska v1.4.0
    Video
    ID : 1
    Format : AVC
    Format/Info : Advanced Video Codec
    Format profile : High@L4.1
    Format settings, CABAC : Yes
    Format settings, ReFrames : 8 frames
    Codec ID : V_MPEG4/ISO/AVC
    Duration : 1h 45mn
    Bit rate : 2 500 Kbps
    Width : 1 024 pixels
    Height : 432 pixels
    Display aspect ratio : 2.35: 1
    Original display aspect ratio : 2.35: 1
    Frame rate mode : Constant
    Frame rate : 23.976 fps
    Color space : YUV
    Chroma subsampling : 4: 2: 0
    Bit depth : 8 bits
    Scan type : Progressive
    Bits/(Pixel*Frame) : 0.236
    Stream size : 1.80 GiB (93%)
    Writing library : x264 core 138 r2356 a1d3d17
    Encoding settings : cabac=1/ref=8/deblock=1: -3: -2/analyse=0x3: 0x113/me=umh/subme=10/psy=1/psy_rd=1.00: 0.05/mixed_ref=1/me_range=32/chroma_me=1/trellis=2/8x8dct=1/cqm=0/deadzone=21, 11/fast_pskip=0/chroma_qp_offset=-3/threads=12/lookahead_threads=2/sliced_threads=0/nr=0/decimate=0/interlaced=0/bluray_compat=0/constrained_intra=0/bframes=8/b_pyramid=2/b_adapt=2/b_bias=0/direct=3/weightb=1/open_gop=0/weightp=2/keyint=240/keyint_min=24/scenecut=40/intra_refresh=0/rc_lookahead=40/rc=2pass/mbtree=1/bitrate=2500/ratetol=1.0/qcomp=0.60/qpmin=0/qpmax=69/qpstep=4/cplxblur=20.0/qblur=0.5/ip_ratio=1.40/aq=1: 1.00
    Default : Yes
    Forced : No
    Audio
    ID : 2
    Format : AC-3
    Format/Info : Audio Coding 3
    Mode extension : CM (complete main)
    Format settings, Endianness : Big
    Codec ID : A_AC3
    Duration : 1h 45mn
    Bit rate mode : Constant
    Bit rate : 128 Kbps
    Channel(s) : 2 channels
    Channel positions : Front: L R
    Sampling rate : 48.0 KHz
    Bit depth : 16 bits
    Compression mode : Lossy
    Stream size : 96.5 MiB (5%)
    Default : Yes
    Forced : No

    Скриншоты


    Онлайн видео Золушка


    Размер скачиваемого торрента: 1.93 GB (2077664589 Bytes)

    Золушка/Cinderella (2015) WEB-DLRip-AVC от Scarabey | Чистый звук
    загрузка...
    Рейтинг →
     (голосов: 1, оценка 4/5, голосовать можно 1 раз )

    Другие торренты по теме:

  • Золушка / Cenerentola (2011) SATRip
  • Золушка: Полный вперед! / Cendrillon au Far West (2012) BDRip-AVC | iPad
  • Золушка: Трилогия / Cinderella: Trilogy (1950-2007) BDRip 1080p
  • Золушка с прицепом (2010) SATRip
  • Темные Притчи: Последняя Золушка / Dark Parables 5: The Final Cinderella CE (2013) PC
  • Сергей Прокофьев - Золушка / Sergei Prokofiev - Cinderella (2012) BDRip от HitWay
  • Золушка / Aschenputtel (2011) HDTVRip | P
  • Золушка `80 / Cenerentola 80 / Cinderella 80 (1984) DVDRip / VHSRip | Full version


    • Комментарии (0):

      Информация

      Информация

        Посетители, находящиеся в группе Гости, не могут оставлять комментарии в данной новости.

        ↓ Меню



        ↓ Опрос

        А Вы добавили сайт в закладки?
        Да
        Не


        Top 10 за месяц (Фильмы)