.
Авторизация | Регистрация
Хочешь лучшие торренты? Добавь свой email!
Добавить
» » Библиотечные войны / Toshokan sens (2013) BDRip-AVC | L2 скачать торрент бесплатно




    Библиотечные войны / Toshokan sens (2013) BDRip-AVC | L2 скачать торрент бесплатно

    Опубликовал: Админ | Дата: 18-06-2015, 05:06 | Просмотров: 68



    Детально о кино
    Русское название: Библиотечные войны
    Русское название в мировом прокате: Toshokan sens?/Library Wars
    Создали в: 2013
    Категория жанра: боевик, драма
    Главный режиссер: Укажите режисера

    Актеры
    Дзюнити Окада, Нана Эйкура, Кэй Танака, Сота Фукуси, Тиаки Курияма, Кадзуса Судзуки, Кодзи Исидзака, Дзюн Хасимото, Наоми Нисида

    Сюжет фильма

    В 1989 году в Японии был принят Закон о развитии СМИ, вводящий строгую цензуру на книги под предлогом защиты молодежи от негативного идеологического влияния. Тысячи книг, целые библиотеки, уничтожались бойцами специального отряда по цензуре. Но в то же самое время правительство приняло Закон о свободе слова, согласно которому каждая библиотека получала право на вооруженное сопротивление цензорам

    Снималось в: Синсукэ Сато
    Киностудия: Chubu-nippon Broadcasting Company (CBC), Mainichi Shinbunsha, WoWow Inc. ...
    Время просмотра: 02: 08: 00
    Перевод текста: Любительский (двухголосый) DeadSno den904
    Файл
    Кодек для видео: MPEG-4 AVC (MKV)
    Качество фильма: BDRip-AVC
    Информация о видео: AVC, 1024x416, 2000 Kbps
    Информация о звуке: Russian: AC3, 192 kb/s (2 ch)/Japanese: AC3, 448 kb/s (6 ch)
    Субтитры: Russian, English

    Скриншоты
    MediaInfo
    General
    Unique ID : 219729779907443278140168364576089856626 (0xA54E6A914F0CE229BEED06CA3E085A72)
    Complete name : D: ДИСК?1.ФИЛЬМЫБиблиотечные войны Toshokan sens? Library Wars (2013)Library_Wars_1_2013_RusLibrary.Wars.2013.BDRip-AVC.mkv
    Format : Matroska
    Format version : Version 4/Version 2
    File size : 2.36 GiB
    Duration : 2h 8mn
    Overall bit rate : 2 642 Kbps
    Encoded date : UTC 2014-02-23 08: 12: 01
    Writing application : mkvmerge v7.7.0 (;Six Voices;) 64bit built on Feb 28 2015 23: 39: 33
    Writing library : XviD4PSP 6.0/54.29.105
    DURATION : 02: 03: 29.109000000
    NUMBER_OF_FRAMES : 1399
    NUMBER_OF_BYTES : 40669
    _STATISTICS_WRITING_APP : mkvmerge v7.7.0 (;Six Voices;) 64bit built on Feb 28 2015 23: 39: 33
    _STATISTICS_WRITING_DATE_UTC : 2015-06-17 07: 32: 01
    _STATISTICS_TAGS : BPS DURATION NUMBER_OF_FRAMES NUMBER_OF_BYTES
    Video
    ID : 1
    Format : AVC
    Format/Info : Advanced Video Codec
    Format profile : High@L4.1
    Format settings, CABAC : Yes
    Format settings, ReFrames : 6 frames
    Codec ID : V_MPEG4/ISO/AVC
    Duration : 2h 8mn
    Bit rate : 2 000 Kbps
    Width : 1 024 pixels
    Height : 416 pixels
    Display aspect ratio : 2.40: 1
    Frame rate mode : Constant
    Frame rate : 23.976 fps
    Color space : YUV
    Chroma subsampling : 4: 2: 0
    Bit depth : 8 bits
    Scan type : Progressive
    Bits/(Pixel*Frame) : 0.196
    Stream size : 1.74 GiB (74%)
    Writing library : x264 core 128 r2216M 198a7ea
    Encoding settings : cabac=1/ref=7/deblock=1: -3: -3/analyse=0x3: 0x133/me=umh/subme=7/psy=1/psy_rd=1.00: 0.20/mixed_ref=1/me_range=24/chroma_me=1/trellis=2/8x8dct=1/cqm=0/deadzone=21, 11/fast_pskip=1/chroma_qp_offset=-3/threads=6/lookahead_threads=1/sliced_threads=0/nr=0/decimate=1/interlaced=0/bluray_compat=0/constrained_intra=0/bframes=7/b_pyramid=1/b_adapt=0/b_bias=7/direct=3/weightb=1/open_gop=0/weightp=0/keyint=230/keyint_min=23/scenecut=40/intra_refresh=0/rc_lookahead=40/rc=2pass/mbtree=1/bitrate=2000/ratetol=1.0/qcomp=0.60/qpmin=0/qpmax=69/qpstep=4/cplxblur=20.0/qblur=0.5/ip_ratio=1.40/aq=1: 1.00
    Language : Japanese
    Default : Yes
    Forced : No
    DURATION : 02: 08: 00.506000000
    NUMBER_OF_FRAMES : 184148
    NUMBER_OF_BYTES : 1919829742
    _STATISTICS_WRITING_APP : mkvmerge v7.7.0 (;Six Voices;) 64bit built on Feb 28 2015 23: 39: 33
    _STATISTICS_WRITING_DATE_UTC : 2015-06-17 07: 32: 01
    _STATISTICS_TAGS : BPS DURATION NUMBER_OF_FRAMES NUMBER_OF_BYTES
    Audio #1
    ID : 2
    Format : AC-3
    Format/Info : Audio Coding 3
    Mode extension : CM (complete main)
    Format settings, Endianness : Big
    Codec ID : A_AC3
    Duration : 2h 8mn
    Bit rate mode : Constant
    Bit rate : 192 Kbps
    Channel(s) : 2 channels
    Channel positions : Front: L R
    Sampling rate : 48.0 KHz
    Bit depth : 16 bits
    Compression mode : Lossy
    Delay relative to video : 27ms
    Stream size : 176 MiB (7%)
    Title : DeadSno den904
    Language : Russian
    Default : Yes
    Forced : No
    DURATION : 02: 08: 00.448000000
    NUMBER_OF_FRAMES : 240014
    NUMBER_OF_BYTES : 184330752
    _STATISTICS_WRITING_APP : mkvmerge v7.7.0 (;Six Voices;) 64bit built on Feb 28 2015 23: 39: 33
    _STATISTICS_WRITING_DATE_UTC : 2015-06-17 07: 32: 01
    _STATISTICS_TAGS : BPS DURATION NUMBER_OF_FRAMES NUMBER_OF_BYTES
    Audio #2
    ID : 3
    Format : AC-3
    Format/Info : Audio Coding 3
    Mode extension : CM (complete main)
    Format settings, Endianness : Big
    Codec ID : A_AC3
    Duration : 2h 8mn
    Bit rate mode : Constant
    Bit rate : 448 Kbps
    Channel(s) : 6 channels
    Channel positions : Front: L C R, Side: L R, LFE
    Sampling rate : 48.0 KHz
    Bit depth : 16 bits
    Compression mode : Lossy
    Delay relative to video : 27ms
    Stream size : 410 MiB (17%)
    Language : Japanese
    Default : No
    Forced : No
    DURATION : 02: 08: 00.448000000
    NUMBER_OF_FRAMES : 240014
    NUMBER_OF_BYTES : 430105088
    _STATISTICS_WRITING_APP : mkvmerge v7.7.0 (;Six Voices;) 64bit built on Feb 28 2015 23: 39: 33
    _STATISTICS_WRITING_DATE_UTC : 2015-06-17 07: 32: 01
    _STATISTICS_TAGS : BPS DURATION NUMBER_OF_FRAMES NUMBER_OF_BYTES
    Text #1
    ID : 4
    Format : UTF-8
    Codec ID : S_TEXT/UTF8
    Codec ID/Info : UTF-8 Plain Text
    Title : .srt
    Language : Russian
    Default : Yes
    Forced : No
    Text #2
    ID : 5
    Format : ASS
    Codec ID : S_TEXT/ASS
    Codec ID/Info : Advanced Sub Station Alpha
    Compression mode : Lossless
    Title : .ass
    Language : Russian
    Default : No
    Forced : No
    Text #3
    ID : 6
    Format : UTF-8
    Codec ID : S_TEXT/UTF8
    Codec ID/Info : UTF-8 Plain Text
    Language : French
    Default : No
    Forced : No

    Релиз подготовил:

    Онлайн видео Библиотечные войны


    Размер скачиваемого торрента: 2.36 GB (2536862746 Bytes)

    Библиотечные войны/Toshokan sens (2013) BDRip-AVC | L2
    загрузка...
    Рейтинг →
     (голосов: 1, оценка 5/5, голосовать можно 1 раз )

    Другие торренты по теме:



      Комментарии (0):

      Информация

      Информация

        Посетители, находящиеся в группе Гости, не могут оставлять комментарии в данной новости.

        ↓ Меню



        ↓ Опрос

        А Вы добавили сайт в закладки?
        Да
        Не


        Top 10 за месяц (Фильмы)