.
Авторизация | Регистрация
Хочешь лучшие торренты? Добавь свой email!
Добавить
» » Кучерявая заложница / Tooken (2015) WEB-DLRip-AVC | L2 скачать торрент бесплатно




    Кучерявая заложница / Tooken (2015) WEB-DLRip-AVC | L2 скачать торрент бесплатно

    Опубликовал: Админ | Дата: 17-06-2015, 05:10 | Просмотров: 114



    Детально о кино
    Русское название: Кучерявая заложница
    Русское название в мировом прокате: Tooken
    Создали в: 2015
    Категория жанра: комедия, пародия
    Главный режиссер: Джон Мэллори Ашер

    Актеры
    Ли Тергесен, Итан Сапли, Донни Уолберг, Дженни МакКарти, Лукас Хаас, Лорен Стемайл, Рено Уилсон, Маргарет Чо, Лора Ли, Эндрю Бауэн

    Сюжет фильма

    Кучерявая заложница - это пародия на трилогию фильмов Заложница. Жизнь агента Брайана Миллерса (Ли Тергесен) полна лишений - он лишился работы в ЦРУ, уважения своей семьи, да и вообще - самой семьи, его бывшую жену планирует забрать наглый афро-американскей Деньго Тряс, а дочь... даже дочь может быть отнята и лишена (если она у нее еще есть) невинности. Но будто всего этого мало, во время покупки подарка на день рождения дочки, Брайан привлекает к себе внимание крупного китайско-американского гангстера (Маргарита Хо), главная цель которого - отнять всё и у всех! А все потому, что однажды, у кого-то была забрана очень ценная вещь.

    Снималось в: США
    Киностудия: Elevative Entertainment
    Время просмотра: 01: 20: 46
    Перевод текста: Любительский (двухголосый) Lucky Strike
    Файл
    Кодек для видео: MPEG-4 AVC (MKV)
    Качество фильма: WEB-DLRip-AVC
    Информация о видео: AVC, 1024x416, 2000 Kbps
    Информация о звуке: Russian: AC3, 192 kb/s (2 ch)/English: AC3, 384 kb/s (6 ch)
    Субтитры: нет

    Скриншоты
    MediaInfo
    General
    Unique ID : 140078924600065164765565296420641967577 (0x6962383432C347BB3C0BAA17EE7E0DD9)
    Complete name : D: ДИСК1.ФИЛЬМЫКучерявая заложница Tooken (2015)Tooken.2015.L2.WEB-DLRip-AVC.mkv
    Format : Matroska
    Format version : Version 2
    File size : 1.46 GiB
    Duration : 1h 20mn
    Overall bit rate : 2 581 Kbps
    Encoded date : UTC 2015-06-14 18: 19: 40
    Writing application : XviD4PSP 6.0/54.29.105
    Writing library : XviD4PSP 6.0/54.29.105
    Video
    ID : 1
    Format : AVC
    Format/Info : Advanced Video Codec
    Format profile : High@L4.1
    Format settings, CABAC : Yes
    Format settings, ReFrames : 6 frames
    Codec ID : V_MPEG4/ISO/AVC
    Duration : 1h 20mn
    Bit rate : 2 000 Kbps
    Width : 1 024 pixels
    Height : 416 pixels
    Display aspect ratio : 2.40: 1
    Original display aspect ratio : 2.40: 1
    Frame rate mode : Constant
    Frame rate : 23.976 fps
    Color space : YUV
    Chroma subsampling : 4: 2: 0
    Bit depth : 8 bits
    Scan type : Progressive
    Bits/(Pixel*Frame) : 0.196
    Stream size : 1.10 GiB (76%)
    Writing library : x264 core 128 r2216M 198a7ea
    Encoding settings : cabac=1/ref=7/deblock=1: -3: -3/analyse=0x3: 0x133/me=umh/subme=7/psy=1/psy_rd=1.00: 0.20/mixed_ref=1/me_range=24/chroma_me=1/trellis=2/8x8dct=1/cqm=0/deadzone=21, 11/fast_pskip=1/chroma_qp_offset=-3/threads=6/lookahead_threads=1/sliced_threads=0/nr=0/decimate=1/interlaced=0/bluray_compat=0/constrained_intra=0/bframes=7/b_pyramid=1/b_adapt=2/b_bias=7/direct=3/weightb=1/open_gop=0/weightp=2/keyint=230/keyint_min=23/scenecut=40/intra_refresh=0/rc_lookahead=40/rc=2pass/mbtree=1/bitrate=2000/ratetol=1.0/qcomp=0.60/qpmin=0/qpmax=69/qpstep=4/cplxblur=20.0/qblur=0.5/ip_ratio=1.40/aq=1: 1.00
    Language : English
    Default : Yes
    Forced : No
    Audio #1
    ID : 2
    Format : AC-3
    Format/Info : Audio Coding 3
    Mode extension : CM (complete main)
    Format settings, Endianness : Big
    Codec ID : A_AC3
    Duration : 1h 20mn
    Bit rate mode : Constant
    Bit rate : 192 Kbps
    Channel(s) : 2 channels
    Channel positions : Front: L R
    Sampling rate : 48.0 KHz
    Bit depth : 16 bits
    Compression mode : Lossy
    Stream size : 111 MiB (7%)
    Language : Russian
    Default : Yes
    Forced : No
    Audio #2
    ID : 3
    Format : AC-3
    Format/Info : Audio Coding 3
    Mode extension : CM (complete main)
    Format settings, Endianness : Big
    Codec ID : A_AC3
    Duration : 1h 20mn
    Bit rate mode : Constant
    Bit rate : 384 Kbps
    Channel(s) : 6 channels
    Channel positions : Front: L C R, Side: L R, LFE
    Sampling rate : 48.0 KHz
    Bit depth : 16 bits
    Compression mode : Lossy
    Stream size : 222 MiB (15%)
    Language : English
    Default : Yes
    Forced : No

    Релиз подготовил:

    Онлайн видео Кучерявая заложница


    Размер скачиваемого торрента: 1.46 GB (1563383728 Bytes)

    Кучерявая заложница/Tooken (2015) WEB-DLRip-AVC | L2
    загрузка...
    Рейтинг →
     (голосов: 1, оценка 4/5, голосовать можно 1 раз )

    Другие торренты по теме:

  • Кучерявая заложница / Tooken (2015) WEB-DLRip | L2
  • Кучерявая заложница / Tooken (2015) WEB-DL 720p | L2
  • Кучерявая заложница / Tooken (2015) WEB-DLRip | L2


    • Комментарии (0):

      Информация

      Информация

        Посетители, находящиеся в группе Гости, не могут оставлять комментарии в данной новости.

        ↓ Меню



        ↓ Опрос

        А Вы добавили сайт в закладки?
        Да
        Не


        Top 10 за месяц (Фильмы)