.
Авторизация | Регистрация
Хочешь лучшие торренты? Добавь свой email!
Добавить
» » Факап, или Хуже не бывает / Nicht mein Tag (2014) HDRip-AVC от Scarabey | iTunes скачать торрент бесплатно




    Факап, или Хуже не бывает / Nicht mein Tag (2014) HDRip-AVC от Scarabey | iTunes скачать торрент бесплатно

    Опубликовал: Админ | Дата: 17-06-2015, 05:10 | Просмотров: 95



    Создали в: 2014
    Снималось в: Германия
    Категория жанра: боевик, комедия, криминал, приключения
    Время просмотра: 01: 50: 17
    Перевод текста: Профессиональный (полное дублирование) iTunes
    Субтитры подготовлены: нет
    Главный режиссер: Петер Торварт/Peter Thorwarth

    Актеры
    Мориц Бляйбтрой, Аксель Штайн, Жасмин Герат, Анна Мария Мюэ, Неля Кипер, Бен Рюдингер, Касэм Ходжа, Беким Гури, Тобиас Нид, Тиль Швайгер

    Описание фильма
    Тиль Райнер — банковский клерк 30-ти лет. Каждый новый день его жизни похож на предыдущий. Отношения с супругой больше напоминают привычку. Но неожиданно происходит то, что позволяет выбраться ему из повседневной рутины. Тиля захватывает в заложники грабитель банка, в котором наш герой узнает заявителя по кредиту — Наппо.
    Полиция разрабатывает план перехват, устанавливает блокпосты, поэтому Наппо решает спрятать заложника в багажник и исчезнуть с награбленным! Но все идет не по плану и Наппо скрывается вместе с Тиллем! После того как шок от случившегося немного проходит, Тиль забывает про какое-либо благоразумие и погружается с головой в приключения вместе со своим похитителем…
    Качество фильма видео: HDRip-AVC
    Тип видео видео: MKV
    Информация о видео: 1024x432 (2.35: 1), 25.000 fps, MPEG-4 AVC ~2200 kbps avg, 0.199 bit/pixel
    Информация о звуке: 48 kHz, AC3 Dolby Digital, 3/2 (L, C, R, l, r) + LFE ch, ~384kbps
    Релиз подготовил:
    АНОНСЫ МОИХ РАЗДАЧ!


    Mediainfo
    ФакапNicht.mein.Tag.2014_AVC_HDRip_scarabey.org.mkv
    Format : Matroska
    Format version : Version 2
    File size : 1.99 GiB
    Duration : 1h 50mn
    Overall bit rate : 2 586 Kbps
    Encoded date : UTC 2015-06-14 08: 49: 24
    Writing application : mkvmerge v6.1.0 (;Old Devil;) built on Mar 4 2013 09: 10: 42
    Writing library : libebml v1.3.0 + libmatroska v1.4.0
    Video
    ID : 1
    Format : AVC
    Format/Info : Advanced Video Codec
    Format profile : High@L4.1
    Format settings, CABAC : Yes
    Format settings, ReFrames : 8 frames
    Codec ID : V_MPEG4/ISO/AVC
    Duration : 1h 50mn
    Bit rate : 2 200 Kbps
    Width : 1 024 pixels
    Height : 432 pixels
    Display aspect ratio : 2.35: 1
    Original display aspect ratio : 2.35: 1
    Frame rate mode : Constant
    Frame rate : 25.000 fps
    Color space : YUV
    Chroma subsampling : 4: 2: 0
    Bit depth : 8 bits
    Scan type : Progressive
    Bits/(Pixel*Frame) : 0.199
    Stream size : 1.66 GiB (83%)
    Writing library : x264 core 138 r2356 a1d3d17
    Encoding settings : cabac=1/ref=8/deblock=1: -3: -2/analyse=0x3: 0x113/me=umh/subme=10/psy=1/psy_rd=1.00: 0.05/mixed_ref=1/me_range=32/chroma_me=1/trellis=2/8x8dct=1/cqm=0/deadzone=21, 11/fast_pskip=1/chroma_qp_offset=-3/threads=12/lookahead_threads=2/sliced_threads=0/nr=0/decimate=0/interlaced=0/bluray_compat=0/constrained_intra=0/bframes=8/b_pyramid=2/b_adapt=2/b_bias=0/direct=3/weightb=1/open_gop=0/weightp=2/keyint=250/keyint_min=25/scenecut=40/intra_refresh=0/rc_lookahead=40/rc=2pass/mbtree=1/bitrate=2200/ratetol=1.0/qcomp=0.60/qpmin=0/qpmax=69/qpstep=4/cplxblur=20.0/qblur=0.5/ip_ratio=1.40/aq=1: 1.00
    Default : Yes
    Forced : No
    Audio
    ID : 2
    Format : AC-3
    Format/Info : Audio Coding 3
    Mode extension : CM (complete main)
    Format settings, Endianness : Big
    Codec ID : A_AC3
    Duration : 1h 50mn
    Bit rate mode : Constant
    Bit rate : 384 Kbps
    Channel(s) : 6 channels
    Channel positions : Front: L C R, Side: L R, LFE
    Sampling rate : 48.0 KHz
    Bit depth : 16 bits
    Compression mode : Lossy
    Stream size : 303 MiB (15%)
    Default : Yes
    Forced : No

    Скриншоты


    Онлайн видео Факап, или Хуже не бывает


    Размер скачиваемого торрента: 1.99 GB (2138735004 Bytes)

    Факап, или Хуже не бывает/Nicht mein Tag (2014) HDRip-AVC от Scarabey | iTunes
    загрузка...
    Рейтинг →
     (голосов: 1, оценка 3/5, голосовать можно 1 раз )

    Другие торренты по теме:

  • Факап, или Хуже не бывает (2014) HDRip
  • Факап, или Хуже не бывает / Nicht mein Tag (2014) HDRip | iTunes
  • Факап, или Хуже не бывает / Nicht mein Tag (2014) HDRip | iTunes
  • Факап, или Хуже не бывает / Nicht mein Tag (2014) BDRip 720p | iTunes
  • Факап, или Хуже не бывает / Nicht mein Tag (2014) HDRip | iTunes
  • Факап, или Хуже не бывает / Nicht mein Tag (2014) HDRip-AVC | iTunes
  • Факап, или Хуже не бывает / Nicht mein Tag (2014) HDRip от Scarabey | iTunes
  • Факап, или Хуже не бывает / Nicht mein Tag (2014) HDRip от Scarabey | iTunes


    • Комментарии (0):

      Информация

      Информация

        Посетители, находящиеся в группе Гости, не могут оставлять комментарии в данной новости.

        ↓ Меню



        ↓ Опрос

        А Вы добавили сайт в закладки?
        Да
        Не


        Top 10 за месяц (Фильмы)