.
Авторизация | Регистрация
Хочешь лучшие торренты? Добавь свой email!
Добавить
» » Тренер / McFarland, USA (2015) BDRip | P | Лицензия скачать торрент бесплатно




    Тренер / McFarland, USA (2015) BDRip | P | Лицензия скачать торрент бесплатно

    Опубликовал: Админ | Дата: 15-06-2015, 15:01 | Просмотров: 124



    Детально о кино
    Русское название: Тренер
    Русское название в мировом прокате: McFarland, USA
    Создали в: 2015
    Категория жанра: Драма, спорт
    Главный режиссер: Ники Каро

    Актеры
    Кевин Костнер, Рамиро Родригес, Карлос Праттс, Джонни Ортиз, Рафаэль Мартинез, Гектор Дюран, Серджо Авелар, Майкл Агеро, Диана-Мария Рива, Омар Лейва

    Сюжет фильма

    История, основана на реальных событиях. В начале девяностых, в маленьком городке МакФарланд, профессиональный тренер создает команду по легкой атлетике из обычных сорванцов и мелких хулиганов, и приводит эту команду до вершины спортивного Олимпа. Население МакФарланда — это 90 процентов латиноамериканцы, которые приехали в США под видом переселенцев и беженцев…

    Снималось в: США
    Время просмотра: 02: 08: 55
    Перевод текста: Профессиональный (многоголосый закадровый)
    Файл
    Тип видео: AVI
    Качеств: BDRip
    Информация о видео: XviD, 720x304, 23.976 fps, ~1967 kbps
    Информация о звуке: Russian : 48 kHz, AC3, 3/2 (L, C, R, l, r) + LFE ch, ~448 kbps |Лицензия|
    Субтитры подготовлены: нет
    Сэмпл
    MediaInfo
    Общее
    Формат : AVI
    Формат/Информация : Audio Video Interleave
    Профиль формата : OpenDML
    Размер файла : 2, 18 Гбайт
    Продолжительность : 2 ч. 8 м.
    Общий поток : 2423 Кбит/сек
    Видео
    Идентификатор : 0
    Формат : MPEG-4 Visual
    Профиль формата : Advanced Simple@L5
    Параметр BVOP формата : 2
    Параметр QPel формата : Нет
    Параметр GMC формата : Без точки перехода
    Параметр матрицы формата : Default (MPEG)
    Идентификатор кодека : XVID
    Идентификатор кодека/Подсказка : XviD
    Продолжительность : 2 ч. 8 м.
    Битрейт : 1963 Кбит/сек
    Ширина : 720 пикселей
    Высота : 304 пикселя
    Соотношение сторон : 2, 35: 1
    Частота кадров : 23, 976 кадра/сек
    Цветовое пространство : YUV
    Субдискретизация насыщенности : 4: 2: 0
    Битовая глубина : 8 бит
    Тип развёртки : Прогрессивная
    Метод сжатия : С потерями
    Бит/(Пиксели*Кадры) : 0.374
    Размер потока : 1, 77 Гбайт (81%)
    Библиотека кодирования : XviD 1.2.1 (UTC 2008-12-04)
    Аудио
    Идентификатор : 1
    Формат : AC-3
    Формат/Информация : Audio Coding 3
    Расширение режима : CM (complete main)
    Параметр Endianness формата : Big
    Идентификатор кодека : 2000
    Продолжительность : 2 ч. 8 м.
    Вид битрейта : Постоянный
    Битрейт : 448 Кбит/сек
    Каналы : 6 каналов
    Расположение каналов : Front: L C R, Side: L R, LFE
    Частота : 48, 0 КГц
    Битовая глубина : 16 бит
    Метод сжатия : С потерями
    Размер потока : 413 Мбайт (18%)
    Выравнивание : Разделение по промежуткам
    Продолжительность промежутка : 42 мс. (1, 00 видеокадр)
    Время предзагрузки промежутка : 500 мс.

    Скриншоты




    Онлайн видео Тренер


    Размер скачиваемого торрента: 2.18 GB (2342528418 Bytes)

    Тренер/McFarland, USA (2015) BDRip | P | Лицензия
    загрузка...
    Рейтинг →
     (голосов: 1, оценка 3/5, голосовать можно 1 раз )

    Другие торренты по теме:

  • Тимко Илья Сергеевич - ТВОЙ ТРЕНЕР. Основы и нюансы любительского атлетизма (2012) PDF
  • Самый лучший тренер / Finding Lenny (2009) SATRip от RG MixTorrent | P
  • Тренер Картер / Coach Carter (2005) BDRemux | P
  • Тимко Илья. Твой Тренер - основы и нюансы любительского атлетизма (2013) PDF
  • Тимко Илья - ТВОЙ ТРЕНЕР - основы и нюансы любительского атлетизма (ИЗДАНИЕ 4) (2013) PDF
  • Тимко Илья - Твой Тренер - основы и нюансы любительского атлетизма (ИЗДАНИЕ 5) (2013) PDF
  • Тимко Илья - Твой тренер: основы и нюансы любительского атлетизма (2013) PDF скачать через торрент бесплатно
  • Тренер / Coach (2010) HDTVRip от MediaClub | P2


    • Комментарии (0):

      Информация

      Информация

        Посетители, находящиеся в группе Гости, не могут оставлять комментарии в данной новости.

        ↓ Меню



        ↓ Опрос

        А Вы добавили сайт в закладки?
        Да
        Не


        Top 10 за месяц (Фильмы)