.
Авторизация | Регистрация
Хочешь лучшие торренты? Добавь свой email!
Добавить
» » Шанхай / Shanghai (2010) BDRip 720p | P2 скачать торрент бесплатно




    Шанхай / Shanghai (2010) BDRip 720p | P2 скачать торрент бесплатно

    Опубликовал: Админ | Дата: 14-06-2015, 21:03 | Просмотров: 66



    Детально о кино
    Русское название: Шанхай
    Русское название в мировом прокате: Shanghai
    Создали в: 2010
    Категория жанра: триллер, драма, мелодрама, детектив, военный
    Главный режиссер: Микаэль Хофстрем

    Актеры
    Джон Кьюсак, Юнь-Фат Чоу, Кен Ватанабе, Гун Ли, Джеффри Дин Морган, Дэвид Морс, Франка Потенте, Хью Бонневилль, Ринко Кикучи, Джемма Чан

    Сюжет фильма

    Историческая драма-детектив, повествующая об американском шпионе, который приезжает в оккупированный японцами Шанхай за четыре месяца до войны с Японией и узнает об убийстве друга, работавшего на военную разведку США. Расследуя преступление, парень успевает влюбиться и раскрыть правительственную тайну международного уровня, которую тщательно прячут высшие чины. Но путь в самые дебри проходит через преступные группировки и тайное партизанское движение.

    Снималось в: США, Китай
    Время просмотра: 01: 47: 25
    Перевод текста: Профессиональный двухголосый, закадровый
    Файл
    Кодек для видео: H.264
    Качество фильма: BDRip 720p
    Информация о видео: MPEG-4/AVC, 1280x544 (2.35: 1), 23.976 fps ~ 4540 Kbps
    Информация о звуке:
    AC3, 48 KHz 6 ch ~ 640 Kb/s (русский)
    AC3, 48 KHz 6 ch ~ 640 Kb/s (английский)
    Субтитры: Русские, английские (UTF-8)
    Скриншоты

    MI:

    Общее
    Уникальный идентификатор : 193140303212818315104880898032925407815 (0x914D7826D5808D8DAC47EE13415BFA47)
    Полное имя : Q: TorFShanghai.2010.x264.BDRip.(720p).mkv
    Формат : Matroska
    Версия формата : Version 2
    Размер файла : 4, 34 Гбайт
    Продолжительность : 1 ч. 47 м.
    Общий поток : 5780 Кбит/сек
    Дата кодирования : UTC 2011-04-30 07: 22: 33
    Программа кодирования : mkvmerge v4.0.0 (;The Stars were mine;) сборка от Jun 6 2010 16: 18: 42
    Библиотека кодирования : libebml v1.0.0 + libmatroska v1.0.0
    Видео
    Идентификатор : 1
    Формат : AVC
    Формат/Информация : Advanced Video Codec
    Профиль формата : High@L4.1
    Параметр CABAC формата : Да
    Параметр ReFrames формата : 8 кадров
    Идентификатор кодека : V_MPEG4/ISO/AVC
    Продолжительность : 1 ч. 47 м.
    Битрейт : 4540 Кбит/сек
    Ширина : 1280 пикселей
    Высота : 544 пикселя
    Соотношение сторон : 2, 35: 1
    Частота кадров : 23, 976 кадра/сек
    Цветовое пространство : YUV
    Субдискретизация насыщенности : 4: 2: 0
    Битовая глубина : 8 бит
    Тип развёртки : Прогрессивная
    Бит/(Пиксели*Кадры) : 0.272
    Размер потока : 3, 29 Гбайт (76%)
    Библиотека кодирования : x264 core 115 r1936 7a9e08d
    Настройки программы : cabac=1/ref=8/deblock=1: -2: -1/analyse=0x3: 0x113/me=umh/subme=10/psy=1/psy_rd=1.00: 0.12/mixed_ref=1/me_range=32/chroma_me=1/trellis=2/8x8dct=1/cqm=0/deadzone=21, 11/fast_pskip=0/chroma_qp_offset=-3/threads=6/sliced_threads=0/nr=0/decimate=0/interlaced=0/bluray_compat=0/constrained_intra=0/bframes=5/b_pyramid=2/b_adapt=2/b_bias=0/direct=1/weightb=1/open_gop=0/weightp=2/keyint=250/keyint_min=23/scenecut=40/intra_refresh=0/rc_lookahead=40/rc=2pass/mbtree=0/bitrate=4540/ratetol=1.0/qcomp=0.70/qpmin=0/qpmax=69/qpstep=4/cplxblur=20.0/qblur=0.5/vbv_maxrate=50000/vbv_bufsize=62500/nal_hrd=none/ip_ratio=1.40/pb_ratio=1.30/aq=2: 0.80/zones=142270, 154600, q=35
    Язык : English
    Default : Нет
    Forced : Нет
    Аудио #1
    Идентификатор : 2
    Формат : AC-3
    Формат/Информация : Audio Coding 3
    Расширение режима : CM (complete main)
    Идентификатор кодека : A_AC3
    Продолжительность : 1 ч. 47 м.
    Вид битрейта : Постоянный
    Битрейт : 640 Кбит/сек
    Каналы : 6 каналов
    Расположение каналов : Front: L C R, Side: L R, LFE
    Частота : 48, 0 КГц
    Битовая глубина : 16 бит
    Метод сжатия : С потерями
    Задержка видео : 170 мс.
    Размер потока : 492 Мбайт (11%)
    Заголовок : DVO
    Язык : Russian
    Default : Да
    Forced : Нет
    Аудио #2
    Идентификатор : 3
    Формат : AC-3
    Формат/Информация : Audio Coding 3
    Расширение режима : CM (complete main)
    Идентификатор кодека : A_AC3
    Продолжительность : 1 ч. 47 м.
    Вид битрейта : Постоянный
    Битрейт : 640 Кбит/сек
    Каналы : 6 каналов
    Расположение каналов : Front: L C R, Side: L R, LFE
    Частота : 48, 0 КГц
    Битовая глубина : 16 бит
    Метод сжатия : С потерями
    Задержка видео : 170 мс.
    Размер потока : 492 Мбайт (11%)
    Заголовок : Original
    Язык : English
    Default : Нет
    Forced : Нет
    Текст #1
    Идентификатор : 4
    Формат : UTF-8
    Идентификатор кодека : S_TEXT/UTF8
    Идентификатор кодека/Информация : UTF-8 Plain Text
    Язык : Russian
    Default : Нет
    Forced : Нет
    Текст #2
    Идентификатор : 5
    Формат : UTF-8
    Идентификатор кодека : S_TEXT/UTF8
    Идентификатор кодека/Информация : UTF-8 Plain Text
    Язык : English
    Default : Нет
    Forced : Нет


    Онлайн видео Шанхай


    Размер скачиваемого торрента: 4.34 GB (4659004147 Bytes)

    Шанхай/Shanghai (2010) BDRip 720p | P2
    загрузка...
    Рейтинг →
     (голосов: 1, оценка 3/5, голосовать можно 1 раз )

    Другие торренты по теме:

  • Жестокий Шанхай / The Shanghai Gesture (1941) DVDRip от egoleshik | P
  • Шанхай / Shanghai (2010) BDRip от Rulya74 | A | P2


    • Комментарии (0):

      Информация

      Информация

        Посетители, находящиеся в группе Гости, не могут оставлять комментарии в данной новости.

        ↓ Меню



        ↓ Опрос

        А Вы добавили сайт в закладки?
        Да
        Не


        Top 10 за месяц (Фильмы)