.
Авторизация | Регистрация
Хочешь лучшие торренты? Добавь свой email!
Добавить
» » Игрок / The Gambler (2014) DVD9 от New-Team | Лицензия скачать торрент бесплатно




    Игрок / The Gambler (2014) DVD9 от New-Team | Лицензия скачать торрент бесплатно

    Опубликовал: Админ | Дата: 14-06-2015, 12:04 | Просмотров: 149



    Детально о кино
    Русское название: Игрок
    Русское название в мировом прокате: The Gambler
    Создали в: 2014
    Категория жанра: триллер, драма, криминал
    Главный режиссер: Руперт Уайатт/Rupert Wyatt

    Актеры
    Марк Уолберг, Джон Гудман, Бри Ларсон, Майкл Кеннет Уильямс, Джессика Лэнг, Гриффин Кливлэнд, Омар Лейва, Энтони Келли, Стив Парк, Эмори Коэн

    Сюжет фильма

    Джим Беннетт — рисковый парень. Днем он — гениальный писатель и отличный преподаватель, ночью — заядлый игрок. Он глубоко увяз в мире, где закон — пустой звук, и однажды ставит на кон все, включая собственную жизнь. Те, кому он должен, опасны, а помочь ему может только тот, кто еще опаснее.
    Достоин ли второго шанса человек, проигравший самого себя? А, если да, то — во сколько это ему обойдется?

    Снималось в: США
    Киностудия: Paramount Pictures, Winkler Films
    Время просмотра: 01: 46: 26
    Перевод текста: Профессиональный (дублированный) Лицензия
    Файл
    Кодек для видео: MPEG2
    Качество фильма: DVD9 R5
    Информация о видео: PAL 16: 9 (720x576(0.550)) MPEG Video, 25, 000 кадр/сек, 5707 Кбит/сек
    Информация о звуке:
    Информация о звуке #1: English (Dolby AC3, 6 ch) 448 Кбит/сек, 48, 0 КГц
    Информация о звуке #2: Russian (Dolby AC3, 6 ch) 448 Кбит/сек, 48, 0 КГц
    Информация о звуке #3: Turkish (Dolby AC3, 2 ch) 192 Кбит/сек, 48, 0 КГц
    Субтитры: русские, английские, турецкие, украинские
    DVDInfo
    Title:
    Size: 6.65 Gb ( 6 973 558 KBytes ) - DVD-9
    Enabled regions: 1, 2, 3, 4, 5, 6, 7, 8
    VTS_01 :
    Play Length:
    Video: PAL 16: 9 (720x576) VBR, Auto Letterboxed
    Audio:
    Not specified (Dolby AC3, 2 ch)
    Not specified (Dolby AC3, 2 ch)
    Not specified (Dolby AC3, 2 ch)
    Not specified (Dolby AC3, 2 ch)
    Not specified (Dolby AC3, 2 ch)
    Not specified (Dolby AC3, 2 ch)
    Not specified (Dolby AC3, 2 ch)
    Not specified (Dolby AC3, 2 ch)
    Subtitles:
    Not specified
    Not specified
    Not specified
    Not specified
    Not specified
    Not specified
    Not specified
    Not specified
    Not specified
    Not specified
    Not specified
    Not specified
    VTS_02 :
    Play Length:
    Video: PAL 16: 9 (720x576) VBR, Auto PanScan
    VTS_03 :
    Play Length: 00: 13: 39
    Video: PAL 16: 9 (720x576) VBR, Auto PanScan
    Audio:
    English (Dolby AC3, 2 ch)
    Subtitles:
    English
    Russian
    Turkish
    Ukrainian
    VTS_04 :
    Play Length: 00: 22: 36+00: 08: 58+00: 01: 56+00: 02: 35+00: 01: 33+00: 06: 26+00: 01: 43
    Video: PAL 16: 9 (720x576) VBR, Auto PanScan
    Audio:
    English (Dolby AC3, 2 ch)
    Subtitles:
    English
    Russian
    Turkish
    Ukrainian
    VTS_05 :
    Play Length: 01: 46: 26+00: 00: 15
    Video: PAL 16: 9 (720x576) VBR, Auto PanScan
    Audio:
    English (Dolby AC3, 6 ch)
    Russian (Dolby AC3, 6 ch)
    Turkish (Dolby AC3, 2 ch)
    Subtitles:
    English
    Russian
    Turkish
    Ukrainian
    Russian
    Turkish
    Menu Video:
    PAL 16: 9 (720x576) VBR
    Auto Letterboxed
    Menu Subtitles:
    Not specified
    Menu English Language Unit :
    Root Menu
    Audio Menu
    Angle menu
    Subpicture Menu

    MediaInfo
    Общее
    Полное имя : H: Новинки 2015Igrok.2014.DVD9VIDEO_TSVTS_05_2.VOB
    Формат : MPEG-PS
    Размер файла : 1024 Мбайт
    Продолжительность : 20 м.
    Режим общего битрейта : Переменный
    Общий поток : 6933 Кбит/сек
    Видео
    Идентификатор : 224 (0xE0)
    Формат : MPEG Video
    Версия формата : Version 2
    Профиль формата : Main@Main
    Параметр BVOP формата : Да
    Параметр матрицы формата : Выборочная
    Параметр GOP формата : Variable
    Продолжительность : 20 м.
    Вид битрейта : Переменный
    Битрейт : 5707 Кбит/сек
    Максимальный битрейт : 9800 Кбит/сек
    Ширина : 720 пикселей
    Высота : 576 пикселей
    Соотношение сторон : 16: 9
    Частота кадров : 25, 000 кадров/сек
    Стандарт вещания : Component
    Цветовое пространство : YUV
    Субдискретизация насыщенности : 4: 2: 0
    Битовая глубина : 8 бит
    Тип развёртки : Прогрессивная
    Порядок развёртки : Верхнее поле первое
    Метод сжатия : С потерями
    Бит/(Пиксели*Кадры) : 0.550
    Временной код первого кадра : 01: 20: 54: 00
    Оригинал временного кода : Group of pictures t_head
    Размер потока : 843 Мбайт (82%)
    Основные цвета : BT.601 PAL
    Характеристики трансфера : BT.470 System B, BT.470 System G
    Коэффициенты матрицы : BT.601
    Аудио #1
    Идентификатор : 189 (0xBD)-128 (0x80)
    Формат : AC-3
    Формат/Информация : Audio Coding 3
    Расширение режима : CM (complete main)
    Параметр Endianness формата : Big
    Режим смешивания : DVD-Video
    Продолжительность : 20 м.
    Вид битрейта : Постоянный
    Битрейт : 448 Кбит/сек
    Каналы : 6 каналов
    Расположение каналов : Front: L C R, Side: L R, LFE
    Частота : 48, 0 КГц
    Метод сжатия : С потерями
    Задержка видео : -328 мс.
    Размер потока : 66, 2 Мбайт (6%)
    Аудио #2
    Идентификатор : 189 (0xBD)-129 (0x81)
    Формат : AC-3
    Формат/Информация : Audio Coding 3
    Расширение режима : CM (complete main)
    Параметр Endianness формата : Big
    Режим смешивания : DVD-Video
    Продолжительность : 20 м.
    Вид битрейта : Постоянный
    Битрейт : 448 Кбит/сек
    Каналы : 6 каналов
    Расположение каналов : Front: L C R, Side: L R, LFE
    Частота : 48, 0 КГц
    Метод сжатия : С потерями
    Задержка видео : -328 мс.
    Размер потока : 66, 2 Мбайт (6%)
    Аудио #3
    Идентификатор : 189 (0xBD)-130 (0x82)
    Формат : AC-3
    Формат/Информация : Audio Coding 3
    Профиль формата : Dolby Digital
    Расширение режима : CM (complete main)
    Параметр Endianness формата : Big
    Режим смешивания : DVD-Video
    Продолжительность : 20 м.
    Вид битрейта : Постоянный
    Битрейт : 192 Кбит/сек
    Каналы : 2 канала
    Расположение каналов : Front: L R
    Частота : 48, 0 КГц
    Метод сжатия : С потерями
    Задержка видео : -360 мс.
    Размер потока : 28, 4 Мбайт (3%)
    Текст #1
    Идентификатор : 189 (0xBD)-32 (0x20)
    Формат : RLE
    Формат/Информация : Run-length encoding
    Режим смешивания : DVD-Video
    Задержка видео : 1 с. 720 мс.
    Текст #2
    Идентификатор : 189 (0xBD)-33 (0x21)
    Формат : RLE
    Формат/Информация : Run-length encoding
    Режим смешивания : DVD-Video
    Задержка видео : 1 с. 720 мс.
    Текст #3
    Идентификатор : 189 (0xBD)-34 (0x22)
    Формат : RLE
    Формат/Информация : Run-length encoding
    Режим смешивания : DVD-Video
    Задержка видео : 1 с. 840 мс.
    Текст #4
    Идентификатор : 189 (0xBD)-35 (0x23)
    Формат : RLE
    Формат/Информация : Run-length encoding
    Режим смешивания : DVD-Video
    Задержка видео : 1 с. 840 мс.
    Текст #5
    Идентификатор : 189 (0xBD)-36 (0x24)
    Формат : RLE
    Формат/Информация : Run-length encoding
    Режим смешивания : DVD-Video
    Задержка видео : 1 с. 720 мс.
    Текст #6
    Идентификатор : 189 (0xBD)-37 (0x25)
    Формат : RLE
    Формат/Информация : Run-length encoding
    Режим смешивания : DVD-Video
    Задержка видео : 1 с. 720 мс.
    Текст #7
    Идентификатор : 189 (0xBD)-38 (0x26)
    Формат : RLE
    Формат/Информация : Run-length encoding
    Режим смешивания : DVD-Video
    Задержка видео : 1 с. 720 мс.
    Текст #8
    Идентификатор : 189 (0xBD)-39 (0x27)
    Формат : RLE
    Формат/Информация : Run-length encoding
    Режим смешивания : DVD-Video
    Задержка видео : 1 с. 720 мс.

    Скриншоты меню


    Скриншоты фильма


    Скриншоты доп. материалов


    Релиз подготовил:
    Залил: voovaz
    Размер скачиваемого торрента: 6.65 GB (7140923392 Bytes)

    Игрок/The Gambler (2014) DVD9 от New-Team | Лицензия
    загрузка...
    Рейтинг →
     (голосов: 1, оценка 4/5, голосовать можно 1 раз )

    Другие торренты по теме:

  • Тайный игрок / Shadow Dancer (2012) BDRip 720p от KinoFan | L1
  • Игрок 786 / Khiladi 786 (2012) HDRip от ICG Generalfilm
  • Игрок №1 / Khiladi No 1 (1997) SATRip от Files-x
  • Легендарный игрок Тэцуя / Gambler Densetsu Tetsuya (2000) DVDRip | AniDuB скачать через торрент бесплатно
  • Тайный игрок / Shadow Dancer (2012) HDRip | P2 скачать через торрент бесплатно
  • Тайный игрок / Shadow Dancer (2012) BDRip 720p от CINEMANIA | P2, L1
  • Тайный игрок / Shadow Dancer (2012) BDRip 1080p от CINEMANIA | P2, L1
  • Тайный игрок / Shadow Dancer (2012) BDRip-AVC | iPad | P2 скачать через торрент бесплатно


    • Комментарии (0):

      Информация

      Информация

        Посетители, находящиеся в группе Гости, не могут оставлять комментарии в данной новости.

        ↓ Меню



        ↓ Опрос

        А Вы добавили сайт в закладки?
        Да
        Не


        Top 10 за месяц (Фильмы)