.
Авторизация | Регистрация
Хочешь лучшие торренты? Добавь свой email!
Добавить
» » Сюрприз / De Surprise (2015) WEBRip 1080p | Трейлер скачать торрент бесплатно




    Сюрприз / De Surprise (2015) WEBRip 1080p | Трейлер скачать торрент бесплатно

    Опубликовал: Админ | Дата: 13-06-2015, 20:39 | Просмотров: 272



    Создали в: 2015
    Создали в: Нидерланды, Бельгия, Германия, Ирландия
    Категория жанра: мелодрама, комедия
    Перевод текста: Дублированный
    Главный режиссер: Майк ван Дим
    Продюсеры: Ганс Де Веерс, Майк ван Дим, Эльс Вандеворст
    Актеры: Йерун ван Конингсбругге, Джорджина Вербаан, Ян Деклер, Генри Гудман, . Ankur Bahl, Навид Чоудри, Оливер Гатс, Ронни Джатти, Elisabeth Andersen, Тамар Баруч
    Описание фильма:
    Эксцентричный мультимиллионер подписывает соглашение о прекращении своей жизни. Выбирая гроб для похорон, он знакомится с подписавшей аналогичный договор молодой женщиной. Проблемы возникают после того, как они влюбляются друг в друга и пытаются расторгнуть заключенные контракты...
    Дата мировой премьеры: 21 мая 2015
    Дата российской премьеры: 5 августа 2015

    Время просмотра: 00: 02: 24
    Качество фильма видео: WEBRip
    Информация о видеокодек: MPEG-4 AVC/H.264
    Битрейт видео: 2236 Кбит/сек
    Размер скачиваемого торрента кадра: 1920x1080
    Информация о звукекодек: AAC
    Битрейт аудио: 126 Кбит/сек
    MediaInfo:

    Общее
    Полное имя : Сюрприз Русский Трейлер (2015).mp4
    Формат : MPEG-4
    Профиль формата : Base Media
    Идентификатор кодека : isom
    Размер файла : 40, 8 Мбайт
    Продолжительность : 2 м. 24 с.
    Общий поток : 2366 Кбит/сек
    Программа кодирования : Lavf56.19.100
    Видео
    Идентификатор : 1
    Формат : AVC
    Формат/Информация : Advanced Video Codec
    Профиль формата : High@L4
    Параметр CABAC формата : Да
    Параметр ReFrames формата : 2 кадра
    Идентификатор кодека : avc1
    Идентификатор кодека/Информация : Advanced Video Coding
    Продолжительность : 2 м. 24 с.
    Битрейт : 2236 Кбит/сек
    Ширина : 1920 пикселей
    Высота : 1080 пикселей
    Соотношение сторон : 16: 9
    Режим частоты кадров : Постоянный
    Частота кадров : 25, 000 кадров/сек
    Цветовое пространство : YUV
    Субдискретизация насыщенности : 4: 2: 0
    Битовая глубина : 8 бит
    Тип развёртки : Прогрессивная
    Бит/(Пиксели*Кадры) : 0.043
    Размер потока : 38, 6 Мбайт (94%)
    Аудио
    Идентификатор : 2
    Формат : AAC
    Формат/Информация : Advanced Audio Codec
    Профиль формата : LC
    Идентификатор кодека : 40
    Продолжительность : 2 м. 24 с.
    Вид битрейта : Постоянный
    Битрейт : 126 Кбит/сек
    Каналы : 2 канала
    Расположение каналов : Front: L R
    Частота : 44, 1 КГц
    Метод сжатия : С потерями
    Размер потока : 2, 17 Мбайт (5%)

    Скриншоты



    Скриншоты



    Залил: Jokerzv

    Онлайн видео Сюрприз


    Размер скачиваемого торрента: 40.83 MB (42814206 Bytes)

    Сюрприз/De Surprise (2015) WEBRip 1080p | Трейлер
    загрузка...
    Рейтинг →
     (голосов: 1, оценка 5/5, голосовать можно 1 раз )

    Другие торренты по теме:

  • Маша и медведь: Сюрприз! Сюрприз! (2017) WEB-DLRip-AVC от ExKinoRay
  • Маша и медведь: Сюрприз! Сюрприз! (2017) WEB-DLRip от GeneralFilm
  • Маша и медведь: Сюрприз! Сюрприз! (2017) WEB-DL 1080p от GeneralFilm
  • Сюрприз для любимого скачать через торрент бесплатно
  • Шанхайский сюрприз / Shanghai Surprise (1986) HDTVRip-AVC
  • Сюрприз для любимого (2014) WEB-DLRip от Generalfilm
  • Сюрприз / De Surprise (2015) WEB-DL 720p | Чистый звук
  • Сюрприз / De Surprise (2015) WEB-DL 1080p | iTunes


    • Комментарии (0):

      Информация

      Информация

        Посетители, находящиеся в группе Гости, не могут оставлять комментарии в данной новости.

        ↓ Меню



        ↓ Опрос

        А Вы добавили сайт в закладки?
        Да
        Не


        Top 10 за месяц (Фильмы)