.
Авторизация | Регистрация
Хочешь лучшие торренты? Добавь свой email!
Добавить
» » Василиса (2014) HDTVRip 720p | Расширенная Телеверсия скачать торрент бесплатно




    Василиса (2014) HDTVRip 720p | Расширенная Телеверсия скачать торрент бесплатно

    Опубликовал: Админ | Дата: 13-06-2015, 15:00 | Просмотров: 136



    Детально о кино
    Русское название в мировом прокате: Василиса
    Создали в: 2014
    Категория жанра: Исторический, мелодрама
    Снималось в: Россия, Всемирные Русские Студии
    Главный режиссер: Антон Сиверс

    Актеры
    Светлана Ходченкова, Дмитрий Соломыкин, Жером Кузан, Кристина Кузьмина, Игорь Черневич, Андрей Ильин, Ирина Розанова, Илья Носков, Андрей Носков, Жоанн Морио, Оливье Сиу, Сесиль Мари Жендр, Ксения Разина, Коля Спиридонов, Фёдор Никитин, Валерий Немешаев, Юрий Кузнецов, Алексей Барабаш, Владимир Матвеев, Юрий Батурин

    Сюжет фильма
    Иван и Василиса любят друг друга. Но им не суждено быть вместе – он дворянин, а она крепостная крестьянка. Возможно, так и закончилась бы эта любовная история, если бы не одно сокрушительное событие – ВОЙНА. Наполеон вторгся в пределы Российской Империи, и этот день изменил всё – привычный уклад, сословные предрассудки, обычную человеческую логику поведения померкло перед лицом национальной беды. Мир больше никогда не станет прежним. Теперь будет кровь и смерть, теперь будет предательство и подвиги. Но в этом горниле для Василисы появляется возможность стать собой. Она становится во главе партизанского отряда, а Иван, рискуя жизнью, участвует в военных операциях регулярной армии. Шаг за шагом молодые люди движутся навстречу друг другу, навстречу своей любви. Война пишет новую историю их отношений. Победа в войне становится победой любви.
    Файл
    Качество фильма: HDTVRip (720p)
    Информация о видео: MPEG-4 AVC, 4000 Кбит/с, 1280x720, 25 кадр/с
    Информация о звуке: Русский (AC3, 2 ch, 384 Кбит/с)
    Размер скачиваемого торрента: 5.79 ГБ
    Время просмотра: 03: 09: 05
    Язык: Русский
    MI
    Общее
    Уникальный идентификатор : 196236052829546044232606992254804223326 (0x93A1B0645A94325297E24A290124E55E)
    Полное имя : C: Vasilisa.2014_HDTVRip.720p.by.bog3417.mkv
    Формат : Matroska
    Версия формата : Version 2
    Размер файла : 5, 79 Гбайт
    Продолжительность : 3 ч. 9 м.
    Общий поток : 4386 Кбит/сек
    Название фильма : Vasilisa_HDTVRip.720p.by.bog3417
    Дата кодирования : UTC 2015-06-13 09: 18: 06
    Программа кодирования : mkvmerge v7.9.0 (;Birds;) 64bit
    Библиотека кодирования : libebml v1.3.1 + libmatroska v1.4.2
    Видео
    Идентификатор : 1
    Формат : AVC
    Формат/Информация : Advanced Video Codec
    Профиль формата : High@L4.1
    Параметр CABAC формата : Да
    Параметр ReFrames формата : 9 кадров
    Идентификатор кодека : V_MPEG4/ISO/AVC
    Продолжительность : 3 ч. 9 м.
    Битрейт : 4000 Кбит/сек
    Ширина : 1280 пикселей
    Высота : 720 пикселей
    Соотношение сторон : 16: 9
    Режим частоты кадров : Постоянный
    Частота кадров : 25, 000 кадров/сек
    Цветовое пространство : YUV
    Субдискретизация насыщенности : 4: 2: 0
    Битовая глубина : 8 бит
    Тип развёртки : Прогрессивная
    Бит/(Пиксели*Кадры) : 0.174
    Размер потока : 5, 17 Гбайт (89%)
    Заголовок : Vasilisa_HDTVRip.720p.by.bog3417
    Библиотека кодирования : x264 core 146 r2538 121396c
    Настройки программы : cabac=1/ref=9/deblock=1: -3: -3/analyse=0x3: 0x33/me=umh/subme=11/psy=1/psy_rd=1.10: 0.00/mixed_ref=1/me_range=32/chroma_me=1/trellis=2/8x8dct=1/cqm=0/deadzone=21, 11/fast_pskip=0/chroma_qp_offset=-2/threads=12/lookahead_threads=2/sliced_threads=0/nr=0/decimate=0/interlaced=0/bluray_compat=0/constrained_intra=0/bframes=9/b_pyramid=2/b_adapt=2/b_bias=0/direct=3/weightb=1/open_gop=0/weightp=2/keyint=250/keyint_min=25/scenecut=40/intra_refresh=0/rc=2pass/mbtree=0/bitrate=4000/ratetol=1.0/qcomp=0.60/qpmin=0/qpmax=69/qpstep=4/cplxblur=20.0/qblur=0.5/ip_ratio=1.40/pb_ratio=1.30/aq=1: 1.20
    Язык : English
    Default : Да
    Forced : Нет
    Аудио
    Идентификатор : 2
    Формат : AC-3
    Формат/Информация : Audio Coding 3
    Расширение режима : CM (complete main)
    Параметр Endianness формата : Big
    Идентификатор кодека : A_AC3
    Продолжительность : 3 ч. 9 м.
    Вид битрейта : Постоянный
    Битрейт : 384 Кбит/сек
    Каналы : 6 каналов
    Расположение каналов : Front: L C R, Side: L R, LFE
    Частота : 48, 0 КГц
    Метод сжатия : С потерями
    Размер потока : 519 Мбайт (9%)
    Язык : Russian
    Default : Да
    Forced : Нет

    Скриншоты





    Релиз подготовил:

    Онлайн видео Василиса (2014) HDTVRip 720p


    Размер скачиваемого торрента: 5.79 GB (6219668403 Bytes)

    Василиса (2014) HDTVRip 720p | Расширенная Телеверсия
    загрузка...
    Рейтинг →
     (голосов: 1, оценка 3/5, голосовать можно 1 раз )

    Другие торренты по теме:

  • Василиса скачать через торрент бесплатно
  • Василиса (2014) DVD-9 скачать через торрент бесплатно
  • Василиса (2014) HDTV 1080i от GeneralFilm | Расширенная Телеверсия
  • Василиса (2014) HDTVRip от GeneralFilm | Расширенная Телеверсия
  • Василиса (2014) WEB-DLRip от MegaPeer | Расширенная телеверсия
  • Василиса (2015) WEB-DL 720p от MediaClub | Расширенная Телеверсия
  • Василиса (2015) HDTVRip (AVC) от Files-х | Расширенная Телеверсия
  • Василиса (2014) Blu-ray 1080p | Лицензия


    • Комментарии (0):

      Информация

      Информация

        Посетители, находящиеся в группе Гости, не могут оставлять комментарии в данной новости.

        ↓ Меню



        ↓ Опрос

        А Вы добавили сайт в закладки?
        Да
        Не


        Top 10 за месяц (Фильмы)