.
Авторизация | Регистрация
Хочешь лучшие торренты? Добавь свой email!
Добавить
» » Во все тяжкие / Breaking Bad (2008) BDRip 720p от KinoGadget | iPad скачать торрент бесплатно




    Во все тяжкие / Breaking Bad (2008) BDRip 720p от KinoGadget | iPad скачать торрент бесплатно

    Опубликовал: Админ | Дата: 13-06-2015, 03:05 | Просмотров: 246



    Создали в: 2008
    Снималось в: США
    Категория жанра: триллер, драма, криминал
    Время просмотра: 7 x ~ 00: 58: 00
    Перевод текста: Профессиональный многоголосый
    Главный режиссер: Мишель Максвелл МакЛарен, Адам Бернштейн, Винс Гиллиган

    Актеры
    Брайан Крэнстон, Анна Ганн, Аарон Полвёзды, Дин Норрис, Бетси Брандт, Эр Джей, Боб Оденкёрк, Джанкарло Эспозито, Джонатан Бэнкс, Стивен Майкл Квезада, Чарльз Бэйкер, Кристен Риттер, Мэтт Л. Джонс, Кристофер Казинс, Кармен Серано, Джереми Битсуи, Майкл Шамус Уайлз, Дэвид Хаус, Дэвид Костабайл, Дэниэл Монкада, Рэй Кэмпбелл, Мариус Стэн, Родни Раш, Луис Монкада, Марк Марголис, Рэймонд Крус, Тесс Харпер, Джон де Ланси, Тина Паркер, Морис Комт
    Описание: Школьный учитель химии Уолтер Уайт узнаёт, что болен раком лёгких. Учитывая сложное финансовое состояние дел семьи, а также перспективы, Уолтер решает заняться изготовлением метамфетамина. Для этого он привлекает своего бывшего ученика Джесси Пинкмана, когда-то исключённого из школы при активном содействии Уайта. Пинкман сам занимался варкой мета, но накануне, в ходе рейда ОБН, он лишился подельника и лаборатории…

    Информация о видео кодек: MPEG-4 AVC
    Качество фильма: BDRip 720p
    Параметры Видео: 1280x720, 23.976 fps; ~3 553 kbps avg
    Параметры Звука: 44.1 KHz, AAC, ~128.00 kbps avg, 2ch
    Тип видео: mp4
    Автор рипа:
    Релиз-группа:

    Meta Tags


    MI
    General
    Complete name : E: Vo.vse.tyazkie.P.BDRip.720p_KinoGadgetVo.vse.tyazkie_s01.e01.P.BDRip.720p_KinoGadget.mp4
    Format : MPEG-4
    Format profile : Base Media
    Codec ID : isom
    File size : 1.52 GiB
    Duration : 58mn 6s
    Overall bit rate mode : Variable
    Overall bit rate : 3 749 Kbps
    Movie name : Во все тяжкие (1 серия)
    Performer : Мишель МакЛарен, Адам Бернштейн, Винс Гиллиган
    Genre : Crime, Drama, Thriller
    ContentType : Short Film
    Recorded date : 2008
    Encoded date : UTC 2015-06-09 06: 16: 29
    Tagged date : UTC 2015-06-12 13: 17: 29
    Cover : Yes
    LongDeion : Школьный учитель химии Уолтер Уайт узнаёт, что болен раком лёгких. Учитывая сложное финансовое состояние дел семьи, а также перспективы, Уолтер решает заняться изготовлением метамфетамина. Для этого он привлекает своего бывшего ученика Джесси Пинкмана, когда-то исключённого из школы при активном содействии Уайта. Пинкман сам занимался варкой мета, но накануне, в ходе рейда УБН, он лишился подельника и лаборатории…
    HDVideo : Yes
    Video
    ID : 1
    Format : AVC
    Format/Info : Advanced Video Codec
    Format profile : High@L4.1
    Format settings, CABAC : Yes
    Format settings, ReFrames : 9 frames
    Codec ID : avc1
    Codec ID/Info : Advanced Video Coding
    Duration : 58mn 6s
    Bit rate : 3 613 Kbps
    Maximum bit rate : 19.4 Mbps
    Width : 1 280 pixels
    Height : 720 pixels
    Display aspect ratio : 16: 9
    Frame rate mode : Constant
    Frame rate : 23.976 fps
    Color space : YUV
    Chroma subsampling : 4: 2: 0
    Bit depth : 8 bits
    Scan type : Progressive
    Bits/(Pixel*Frame) : 0.164
    Stream size : 1.47 GiB (96%)
    Writing library : x264 core 130 r2273 b3065e6
    Encoding settings : cabac=1/ref=9/deblock=1: -1: -1/analyse=0x3: 0x133/me=umh/subme=9/psy=1/psy_rd=1.00: 0.20/mixed_ref=1/me_range=24/chroma_me=1/trellis=2/8x8dct=1/cqm=0/deadzone=21, 11/fast_pskip=0/chroma_qp_offset=-3/threads=3/lookahead_threads=1/sliced_threads=0/nr=0/decimate=1/interlaced=0/bluray_compat=0/constrained_intra=0/bframes=4/b_pyramid=2/b_adapt=2/b_bias=0/direct=3/weightb=1/open_gop=0/weightp=2/keyint=250/keyint_min=23/scenecut=40/intra_refresh=0/rc_lookahead=60/rc=crf/mbtree=1/crf=21.0/qcomp=0.60/qpmin=0/qpmax=69/qpstep=4/ip_ratio=1.40/aq=1: 0.50
    Encoded date : UTC 2015-06-09 06: 16: 29
    Tagged date : UTC 2015-06-09 06: 17: 37
    Audio
    ID : 2
    Format : AAC
    Format/Info : Advanced Audio Codec
    Format profile : LC
    Codec ID : 40
    Duration : 58mn 6s
    Bit rate mode : Variable
    Bit rate : 127 Kbps
    Maximum bit rate : 206 Kbps
    Channel count : 2 channels
    Original Channel count : 6 channels
    Channel positions : Front: L C R, Side: L R, LFE
    Sampling rate : 48.0 KHz
    Compression mode : Lossy
    Delay relative to video : 125ms
    Stream size : 52.6 MiB (3%)
    Encoded date : UTC 2015-06-09 06: 17: 34
    Tagged date : UTC 2015-06-09 06: 17: 37

    Скриншоты


    Залил: KinoGadget

    Онлайн видео Во все тяжкие


    Размер скачиваемого торрента: 7.81 GB (8386274580 Bytes)

    Во все тяжкие/Breaking Bad (2008) BDRip 720p от KinoGadget | iPad
    загрузка...
    Рейтинг →
     (голосов: 1, оценка 4/5, голосовать можно 1 раз )

    Другие торренты по теме:

  • OST - Во все тяжкие / Breaking Bad (2012) MP3
  • Во все тяжкие / Breaking Bad (2009) WEB-DLRip | Кубик в Кубе
  • Во все тяжкие / Breaking Bad HDRip от Scarabey | LostFilm
  • Во все тяжкие / Breaking Bad (2013) WEB-DL 1080p от MediaClub
  • Во все тяжкие / Breaking Bad (2013) WEB-DLRip от Scarabey | LostFilm
  • Во все тяжкие / Breaking Bad (2013) WEB-DL 720p | Кубик в Кубе
  • Во все тяжкие / Breaking Bad (2013) WEB-DLRip l Кубик в Кубе
  • Во все тяжкие / Breaking Bad (2013) HDTVRip l Kerob


    • Комментарии (0):

      Информация

      Информация

        Посетители, находящиеся в группе Гости, не могут оставлять комментарии в данной новости.

        ↓ Меню



        ↓ Опрос

        А Вы добавили сайт в закладки?
        Да
        Не


        Top 10 за месяц (Фильмы)