.
Авторизация | Регистрация
Хочешь лучшие торренты? Добавь свой email!
Добавить
» » Территория (2014) DVDRip-AVC | Лицензия скачать торрент бесплатно




    Территория (2014) DVDRip-AVC | Лицензия скачать торрент бесплатно

    Опубликовал: Админ | Дата: 12-06-2015, 09:02 | Просмотров: 185



    Детально о кино
    Русское название в мировом прокате: Территория
    Создали в: 2015
    Категория жанра: Приключения, драма
    Снималось в: Россия, Кинокомпания Андреевский флаг
    Главный режиссер: Александр Мельник

    Актеры
    Константин Лавроненко, Григорий Добрыгин, Егор Бероев, Ксения Кутепова, Евгений Цыганов, Владислав Абашин, Герасим Васильев, Константин Шелестун, Константин Балакирев, Олег Шапков

    Сюжет фильма
    Территория — это место, где люди проверяются на прочность. Необозримые пространства, где тундра встречается с ледяными торосами Ледовитого океана. Суровый русский север, которому способны бросить вызов немногие. Геолог Илья Чинков, одержимый идеей найти легендарное золото Территории, собирает команду смельчаков, готовых поставить на карту все, включая собственные жизни.
    Файл
    Качество фильма: DVDRip-AVC
    Информация о видео: MPEG-4 AVC, 2500 Кбит/с, 720x428@1024x428
    Информация о звуке: AC3, 6 ch, 448 Кбит/с
    Размер скачиваемого торрента: 3.14 ГБ
    Время просмотра: 02: 32: 13
    Язык: Русский
    Семпл
    MI

    x264 info: frame I: 1573 Avg QP: 14.11 size: 75986
    x264 info: frame P: 49210 Avg QP: 17.01 size: 32466
    x264 info: frame B: 177566 Avg QP: 21.03 size: 6404
    Общее
    Уникальный идентификатор : 189565501548242985971084946866532096211 (0x8E9CFCD2667D8C9981B896CF2C5998D3)
    Полное имя : C: Teritoria.2015.DVDRip.AVC.by.bog3417.mkv
    Формат : Matroska
    Версия формата : Version 2
    Размер файла : 3, 14 Гбайт
    Продолжительность : 2 ч. 32 м.
    Общий поток : 2950 Кбит/сек
    Название фильма : Teritoria.2015.DVDRip.(AVC).2.18.by_bog3417
    Дата кодирования : UTC 2015-06-12 03: 55: 12
    Программа кодирования : mkvmerge v7.9.0 (;Birds;) 64bit
    Библиотека кодирования : libebml v1.3.1 + libmatroska v1.4.2
    DURATION : 02: 32: 13.960000000
    NUMBER_OF_FRAMES : 228349
    NUMBER_OF_BYTES : 2854279763
    _STATISTICS_WRITING_APP : mkvmerge v7.7.0 (;Six Voices;) 32bit built on Feb 28 2015 23: 23: 00
    _STATISTICS_WRITING_DATE_UTC : 2015-06-12 02: 07: 08
    _STATISTICS_TAGS : BPS DURATION NUMBER_OF_FRAMES NUMBER_OF_BYTES
    Видео
    Идентификатор : 1
    Формат : AVC
    Формат/Информация : Advanced Video Codec
    Профиль формата : High@L4.1
    Параметр CABAC формата : Да
    Параметр ReFrames формата : 10 кадров
    Идентификатор кодека : V_MPEG4/ISO/AVC
    Продолжительность : 2 ч. 32 м.
    Битрейт : 2500 Кбит/сек
    Ширина : 720 пикселей
    Высота : 428 пикселей
    Соотношение сторон : 2, 40: 1
    Соотношение сторон в оригинале : 2, 40: 1
    Режим частоты кадров : Постоянный
    Частота кадров : 25, 000 кадров/сек
    Цветовое пространство : YUV
    Субдискретизация насыщенности : 4: 2: 0
    Битовая глубина : 8 бит
    Тип развёртки : Прогрессивная
    Бит/(Пиксели*Кадры) : 0.325
    Размер потока : 2, 60 Гбайт (83%)
    Заголовок : Teritoria.2015.DVDRip.(AVC).2.18.by_bog3417
    Библиотека кодирования : x264 core 146 r2538 121396c
    Настройки программы : cabac=1/ref=10/deblock=1: -2: -2/analyse=0x3: 0x133/me=umh/subme=11/psy=1/psy_rd=1.00: 0.10/mixed_ref=1/me_range=32/chroma_me=1/trellis=2/8x8dct=1/cqm=0/deadzone=21, 11/fast_pskip=0/chroma_qp_offset=-3/threads=12/lookahead_threads=2/sliced_threads=0/nr=0/decimate=0/interlaced=0/bluray_compat=0/constrained_intra=0/bframes=9/b_pyramid=2/b_adapt=2/b_bias=0/direct=3/weightb=1/open_gop=0/weightp=2/keyint=250/keyint_min=25/scenecut=40/intra_refresh=0/rc_lookahead=60/rc=2pass/mbtree=1/bitrate=2500/ratetol=1.0/qcomp=0.60/qpmin=10/qpmax=51/qpstep=4/cplxblur=20.0/qblur=0.5/ip_ratio=1.40/aq=1: 1.00
    Default : Да
    Forced : Нет
    Аудио
    Идентификатор : 2
    Формат : AC-3
    Формат/Информация : Audio Coding 3
    Расширение режима : CM (complete main)
    Параметр Endianness формата : Big
    Идентификатор кодека : A_AC3
    Продолжительность : 2 ч. 32 м.
    Вид битрейта : Постоянный
    Битрейт : 448 Кбит/сек
    Каналы : 6 каналов
    Расположение каналов : Front: L C R, Side: L R, LFE
    Частота : 48, 0 КГц
    Метод сжатия : С потерями
    Размер потока : 488 Мбайт (15%)
    Язык : Russian
    Default : Да
    Forced : Нет
    Меню
    00: 00: 00.000 : en: 00: 00: 00.000
    00: 11: 07.320 : en: 00: 11: 07.320
    00: 24: 14.040 : en: 00: 24: 14.040
    00: 37: 17.840 : en: 00: 37: 17.840
    00: 49: 19.480 : en: 00: 49: 19.480
    00: 59: 05.480 : en: 00: 59: 05.480
    01: 11: 40.040 : en: 01: 11: 40.040
    01: 20: 59.920 : en: 01: 20: 59.920
    01: 34: 08.440 : en: 01: 34: 08.440
    01: 47: 57.720 : en: 01: 47: 57.720
    02: 01: 54.960 : en: 02: 01: 54.960
    02: 16: 36.440 : en: 02: 16: 36.440

    Скриншоты



    Релиз подготовил:

    Онлайн видео Территория (2014) DVDRip-AVC


    Размер скачиваемого торрента: 3.14 GB (3367803481 Bytes)

    Территория (2014) DVDRip-AVC | Лицензия
    загрузка...
    Рейтинг →
     (голосов: 1, оценка 3/5, голосовать можно 1 раз )

    Другие торренты по теме:

  • В осаде 2: Тёмная Территория / Захват 2: Территория Тьмы / Under Siege 2: Dark Territory (1995) HDRip от Scarabey | P скачать через торрент бесплатно
  • В осаде 2: Тёмная Территория / Захват 2: Территория Тьмы / Under Siege 2: Dark Territory (1995) HDRip от Scarabey | P
  • Территория тьмы / Dusk-12 (2007) PC | Лицензия
  • Территория заблуждений с Игорем Прокопенко (2013) IPTVRip
  • Сборник - Территория Меломана. Зарубежный (2013) МР3
  • Южная Территория / Саутлэнд / Southland (2013) HDTVRip | Sub
  • Территория заблуждений с Игорем Прокопенко (2013) SATRip
  • Сборник - Территория модных хитов (2013) MP3


    • Комментарии (0):

      Информация

      Информация

        Посетители, находящиеся в группе Гости, не могут оставлять комментарии в данной новости.

        ↓ Меню



        ↓ Опрос

        А Вы добавили сайт в закладки?
        Да
        Не


        Top 10 за месяц (Фильмы)